<?xml version="1.0" standalone="no"?>
<!DOCTYPE svg PUBLIC "-//W3C//DTD SVG 1.1//EN" "http://www.w3.org/Graphics/SVG/1.1/DTD/svg11.dtd" >
<svg>
<metadata>
Created by FontForge 20090622 at Tue Jun 13 10:46:23 2017
 By deploy user
Copyright (c) 2014 by Nonpareille / Matthieu Cortat. All rights reserved.
</metadata>
<defs>
<font id="Basetica-Bold" horiz-adv-x="564" >
  <font-face 
    font-family="Basetica-Bold"
    font-weight="400"
    font-stretch="normal"
    units-per-em="1000"
    panose-1="2 13 8 3 3 0 0 0 0 4"
    ascent="803"
    descent="-197"
    x-height="541"
    cap-height="720"
    bbox="-87 -295 1812 1042"
    underline-thickness="50"
    underline-position="-100"
    unicode-range="U+000D-U+FB03"
  />
<missing-glyph horiz-adv-x="265" 
 />
    <glyph glyph-name="ff" unicode="ff" horiz-adv-x="674" 
d="M568 541h97v-132h-97v-409h-146v409h-170v-409h-146v409h-97v132h97v8q0 83 46.5 133t133.5 50q37 0 73 -9l-12 -126q-24 4 -37 4q-58 0 -58 -56v-4h170v8q0 83 46.5 133t133.5 50q37 0 73 -9l-12 -126q-24 4 -37 4q-58 0 -58 -56v-4z" />
    <glyph glyph-name="fi" unicode="fi" horiz-adv-x="629" 
d="M252 541h313v-541h-146v409h-167v-409h-146v409h-97v132h97v8q0 83 46.5 133t133.5 50q37 0 73 -9l-12 -126q-24 4 -37 4q-58 0 -58 -56v-4zM404 652q0 37 24.5 57.5t63.5 20.5t63.5 -20.5t24.5 -57.5t-24.5 -57.5t-63.5 -20.5t-63.5 20.5t-24.5 57.5z" />
    <glyph glyph-name="fl" unicode="fl" horiz-adv-x="632" 
d="M252 541h97v-132h-97v-409h-146v409h-97v132h97v8q0 83 46.5 133t133.5 50q37 0 73 -9l-12 -126q-24 4 -37 4q-58 0 -58 -56v-4zM568 720v-720h-146v720h146z" />
    <glyph glyph-name="ffi" unicode="ffi" horiz-adv-x="945" 
d="M568 409v-409h-146v409h-170v-409h-146v409h-97v132h97v8q0 83 46.5 133t133.5 50q37 0 73 -9l-12 -126q-24 4 -37 4q-58 0 -58 -56v-4h170v8q0 83 46.5 133t133.5 50q37 0 73 -9l-12 -126q-24 4 -37 4q-58 0 -58 -56v-4h313v-541h-146v409h-167zM720 652q0 37 24.5 57.5
t63.5 20.5t63.5 -20.5t24.5 -57.5t-24.5 -57.5t-63.5 -20.5t-63.5 20.5t-24.5 57.5z" />
    <glyph glyph-name="fj" unicode="fj" horiz-adv-x="629" 
d="M252 541h313v-690l-146 -20v578h-167v-409h-146v409h-97v132h97v8q0 83 46.5 133t133.5 50q37 0 73 -9l-12 -126q-24 4 -37 4q-58 0 -58 -56v-4zM404 652q0 37 24.5 57.5t63.5 20.5t63.5 -20.5t24.5 -57.5t-24.5 -57.5t-63.5 -20.5t-63.5 20.5t-24.5 57.5z" />
    <glyph glyph-name="ft" unicode="ft" horiz-adv-x="680" 
d="M106 541v8q0 83 46.5 133t133.5 50q37 0 73 -9l-12 -126q-24 4 -37 4q-58 0 -58 -56v-4h176v110l146 20v-130h97v-132h-97v-409h-146v409h-176v-409h-146v409h-97v132h97z" />
    <glyph glyph-name="ffj" unicode="ffj" horiz-adv-x="945" 
d="M720 652q0 37 24.5 57.5t63.5 20.5t63.5 -20.5t24.5 -57.5t-24.5 -57.5t-63.5 -20.5t-63.5 20.5t-24.5 57.5zM735 409h-167v-409h-146v409h-170v-409h-146v409h-97v132h97v8q0 83 46.5 133t133.5 50q37 0 73 -9l-12 -126q-24 4 -37 4q-58 0 -58 -56v-4h170v8
q0 83 46.5 133t133.5 50q37 0 73 -9l-12 -126q-24 4 -37 4q-58 0 -58 -56v-4h313v-690l-146 -20v578z" />
    <glyph glyph-name="fft" unicode="fft" horiz-adv-x="996" 
d="M568 409v-409h-146v409h-170v-409h-146v409h-97v132h97v8q0 83 46.5 133t133.5 50q37 0 73 -9l-12 -126q-24 4 -37 4q-58 0 -58 -56v-4h170v8q0 83 46.5 133t133.5 50q37 0 73 -9l-12 -126q-24 4 -37 4q-58 0 -58 -56v-4h176v110l146 20v-130h97v-132h-97v-409h-146v409
h-176z" />
    <glyph glyph-name="tt" unicode="tt" horiz-adv-x="680" 
d="M671 409h-97v-409h-146v409h-176v-409h-146v409h-97v132h97v110l146 20v-130h176v110l146 20v-130h97v-132z" />
    <glyph glyph-name=".notdef" horiz-adv-x="265" 
 />
    <glyph glyph-name=".null" horiz-adv-x="0" 
 />
    <glyph glyph-name="nonmarkingreturn" horiz-adv-x="333" 
 />
    <glyph glyph-name="NULL" horiz-adv-x="0" 
 />
    <glyph glyph-name="NULL" horiz-adv-x="0" 
 />
    <glyph glyph-name="CR" unicode="&#xd;" horiz-adv-x="265" 
 />
    <glyph glyph-name="space" unicode=" " horiz-adv-x="265" 
 />
    <glyph glyph-name="exclam" unicode="!" horiz-adv-x="265" 
d="M41 80q0 41 25.5 66t66.5 25t66 -25.5t25 -65.5q0 -41 -25 -66.5t-66 -25.5t-66.5 25.5t-25.5 66.5zM105 202l-51 307v211h157v-211l-51 -307h-55z" />
    <glyph glyph-name="quotedbl" unicode="&#x22;" horiz-adv-x="464" 
d="M103 408l-48 312h156l-48 -312h-60zM301 408l-48 312h156l-48 -312h-60z" />
    <glyph glyph-name="numbersign" unicode="#" horiz-adv-x="662" 
d="M442 541l50 179h118l-50 -179h83v-109h-112l-38 -134h101v-109h-131l-52 -189h-119l52 189h-118l-52 -189h-124l52 189h-79v109h109l38 134h-98v109h128l50 179h119l-50 -179h123zM289 432l-38 -134h123l38 134h-123z" />
    <glyph glyph-name="dollar" unicode="$" horiz-adv-x="597" 
d="M271 -169v159q-96 9 -156.5 61t-85.5 133l149 61q22 -57 54 -82.5t89 -25.5q42 0 64.5 17t22.5 47q0 48 -70 75l-134 51q-150 56 -150 194q0 84 60 144.5t157 65.5v147h75v-151q125 -22 191 -153l-143 -70q-46 79 -112 79q-34 0 -52.5 -16t-18.5 -40q0 -38 57 -60
l146 -58q67 -26 107 -70q48 -53 48 -143q0 -84 -60 -141t-163 -65v-159h-75z" />
    <glyph glyph-name="percent" unicode="%" horiz-adv-x="999" 
d="M36 539q0 83 56.5 138t139.5 55q82 0 138 -55t56 -138q0 -79 -56.5 -135t-137.5 -56q-83 0 -139.5 55t-56.5 136zM153 539q0 -34 22.5 -57.5t56.5 -23.5q32 0 55 24.5t23 56.5q0 36 -22.5 60t-55.5 24q-34 0 -56.5 -24t-22.5 -60zM572 179q0 83 56.5 138t139.5 55
q82 0 138 -55t56 -138q0 -79 -56.5 -135t-137.5 -56q-83 0 -139.5 55t-56.5 136zM689 179q0 -34 22.5 -57.5t56.5 -23.5q32 0 55 24.5t23 56.5q0 36 -22.5 60t-55.5 24q-34 0 -56.5 -24t-22.5 -60zM288 0l298 720h125l-296 -720h-127z" />
    <glyph glyph-name="ampersand" unicode="&#x26;" horiz-adv-x="671" 
d="M302 594q-19 0 -34 -14.5t-15 -36.5q0 -9 2 -17t4 -13.5t7.5 -13.5t8.5 -11l10 -12q8 -10 11 -13q57 33 57 78q0 24 -14.5 38.5t-36.5 14.5zM260 -12q-101 0 -168.5 57t-67.5 154q0 140 147 212q-54 72 -54 145q0 76 54.5 126t129.5 50q76 0 128.5 -50.5t52.5 -130.5
q0 -56 -29 -97t-89 -77l95 -112q21 37 26 95h134q-10 -116 -74 -202l130 -158h-170l-51 65q-83 -77 -194 -77zM272 126q56 0 101 37l-127 157q-74 -43 -74 -108q0 -37 26.5 -61.5t73.5 -24.5z" />
    <glyph glyph-name="quotesingle" unicode="'" horiz-adv-x="265" 
d="M103 408l-48 312h156l-48 -312h-60z" />
    <glyph glyph-name="parenleft" unicode="(" horiz-adv-x="362" 
d="M77 279q0 235 150 441h117q-133 -204 -133 -441q0 -244 133 -448h-117q-150 207 -150 448z" />
    <glyph glyph-name="parenright" unicode=")" horiz-adv-x="362" 
d="M287 279q0 -246 -152 -448h-117q135 207 135 448q0 234 -135 441h117q152 -200 152 -441z" />
    <glyph glyph-name="asterisk" unicode="*" horiz-adv-x="456" 
d="M304 340l-77 104l-75 -104l-82 57l78 106l-125 40l30 96l125 -43v124h100v-123l125 42l30 -96l-126 -40l79 -106z" />
    <glyph glyph-name="plus" unicode="+" 
d="M341 419h166v-118h-166v-166h-118v166h-166v118h166v166h118v-166z" />
    <glyph glyph-name="comma" unicode="," horiz-adv-x="265" 
d="M37 -151l32 309h161l-104 -309h-89z" />
    <glyph glyph-name="hyphen" unicode="-" horiz-adv-x="265" 
d="M243 337v-132h-220v132h220z" />
    <glyph glyph-name="period" unicode="." horiz-adv-x="265" 
d="M41 80q0 41 25.5 66t66.5 25t66 -25.5t25 -65.5q0 -41 -25 -66.5t-66 -25.5t-66.5 25.5t-25.5 66.5z" />
    <glyph glyph-name="slash" unicode="/" horiz-adv-x="401" 
d="M270 720h123l-262 -720h-123z" />
    <glyph glyph-name="zero" unicode="0" 
d="M376 360q0 114 -25.5 172.5t-68.5 58.5t-68.5 -58.5t-25.5 -172.5t25.5 -172.5t68.5 -58.5t68.5 58.5t25.5 172.5zM530 360q0 -210 -98 -310q-62 -62 -150 -62t-150 62q-98 100 -98 310t98 310q62 62 150 62t150 -62q98 -100 98 -310z" />
    <glyph glyph-name="one" unicode="1" 
d="M79 491v113h16q143 0 200 116h108v-720h-154v491h-170z" />
    <glyph glyph-name="two" unicode="2" 
d="M518 140v-140h-471v30q0 71 16 117q25 68 105 136l112 96q46 39 61 65t15 59q0 37 -24.5 61t-60.5 24q-70 0 -109 -88l-119 57q30 80 88.5 127.5t144.5 47.5q104 0 167.5 -66.5t63.5 -163.5q0 -77 -28.5 -123.5t-112.5 -111.5l-96 -74q-45 -36 -48 -53h296z" />
    <glyph glyph-name="three" unicode="3" 
d="M275 132q40 0 66.5 24.5t26.5 64.5q0 64 -58 84q-19 7 -73 7h-40v132h28q57 0 81 10q44 17 44 67q0 31 -20.5 50.5t-53.5 19.5q-56 0 -102 -57l-104 83q78 115 208 115q94 0 153 -56t59 -147q0 -102 -89 -149q51 -22 83 -68t32 -107q0 -102 -69 -159.5t-175 -57.5
q-160 0 -230 138l121 77q22 -36 47.5 -53.5t64.5 -17.5z" />
    <glyph glyph-name="four" unicode="4" 
d="M329 553l-180 -254h180v254zM543 299v-127h-69v-172h-145v172h-305v146l297 402h153v-421h69z" />
    <glyph glyph-name="five" unicode="5" 
d="M312 480q91 0 154.5 -65t63.5 -171q0 -108 -71 -182t-182 -74q-86 0 -147.5 45.5t-93.5 125.5l123 58q45 -88 119 -88q47 0 75.5 30.5t28.5 79.5q0 50 -27.5 79.5t-74.5 29.5q-56 0 -96 -46l-127 29l36 389h395v-139h-282l-17 -167q45 66 123 66z" />
    <glyph glyph-name="six" unicode="6" 
d="M208 225q0 -43 25.5 -71t65.5 -28q42 0 68 28t26 71q0 44 -26.5 71t-67.5 27q-39 0 -65 -28t-26 -70zM312 732q64 0 109.5 -22t86.5 -67l-93 -103q-54 54 -104 54q-52 0 -82 -46q-37 -58 -37 -180q17 40 53 65t86 25q85 0 146 -63.5t61 -163.5q0 -103 -66 -173t-168 -70
q-112 0 -181 76q-80 88 -80 274q0 218 92 317q71 77 177 77z" />
    <glyph glyph-name="seven" unicode="7" 
d="M38 580v140h500v-119q-107 -130 -167.5 -275t-74.5 -326h-169q13 152 82 301t184 279h-355z" />
    <glyph glyph-name="eight" unicode="8" 
d="M282 -12q-104 0 -172 61t-68 160q0 56 27 103t70 68q-71 55 -71 143q0 89 62 149t152 60t152.5 -60t62.5 -149q0 -87 -72 -143q43 -21 70 -68.5t27 -103.5q0 -99 -68 -159.5t-172 -60.5zM184 219q0 -41 27 -68.5t71 -27.5t71 28t27 68t-28 68t-70 28t-70 -28t-28 -68z
M200 519q0 -34 23.5 -57.5t58.5 -23.5t59 24.5t24 56.5q0 34 -23 57.5t-60 23.5t-59.5 -23t-22.5 -58z" />
    <glyph glyph-name="nine" unicode="9" 
d="M357 495q0 43 -25.5 71t-65.5 28q-42 0 -68 -28t-26 -71q0 -44 26.5 -71t67.5 -27q39 0 65 28t26 70zM253 -12q-117 0 -206 98l93 103q65 -63 114 -63q52 0 82 46q37 58 37 180q-17 -40 -53 -65t-86 -25q-85 0 -146 63.5t-61 163.5q0 103 66 173t168 70q112 0 181 -76
q80 -88 80 -274q0 -218 -92 -317q-71 -77 -177 -77z" />
    <glyph glyph-name="colon" unicode=":" horiz-adv-x="265" 
d="M41 80q0 41 25.5 66t66.5 25t66 -25.5t25 -65.5q0 -41 -25 -66.5t-66 -25.5t-66.5 25.5t-25.5 66.5zM41 462q0 41 25.5 66t66.5 25t66 -25.5t25 -65.5q0 -41 -25 -66.5t-66 -25.5t-66.5 25.5t-25.5 66.5z" />
    <glyph glyph-name="semicolon" unicode=";" horiz-adv-x="265" 
d="M37 -151l32 309h161l-104 -309h-89zM39 462q0 41 25.5 66t66.5 25t66 -25.5t25 -65.5q0 -41 -25 -66.5t-66 -25.5t-66.5 25.5t-25.5 66.5z" />
    <glyph glyph-name="less" unicode="&#x3c;" 
d="M507 102l-450 223v69l450 223v-135l-272 -122l272 -120v-138z" />
    <glyph glyph-name="equal" unicode="=" 
d="M57 519h450v-118h-450v118zM57 319h450v-118h-450v118z" />
    <glyph glyph-name="greater" unicode="&#x3e;" 
d="M507 325l-450 -223v138l272 120l-272 122v135l450 -223v-69z" />
    <glyph glyph-name="question" unicode="?" horiz-adv-x="485" 
d="M266 202h-66q-11 36 -11 65q0 65 51 116l34 34q45 45 45 93q0 35 -21 59.5t-55 24.5q-61 0 -98 -70l-105 68q25 59 80 99.5t125 40.5q98 0 158 -60t60 -152q0 -101 -87 -177l-58 -52q-28 -25 -38.5 -42.5t-13.5 -46.5zM150 80q0 41 25.5 66t66.5 25q40 0 65.5 -25.5
t25.5 -65.5q0 -41 -25 -66.5t-66 -25.5t-66.5 25.5t-25.5 66.5z" />
    <glyph glyph-name="at" unicode="@" horiz-adv-x="955" 
d="M686 -7l43 -104q-103 -59 -235 -59q-202 0 -328 125.5t-126 325.5q0 191 128 321t315 130q194 0 314 -115.5t120 -299.5q0 -139 -63 -211t-144 -72q-107 0 -143 84q-56 -84 -140 -84q-67 0 -109.5 35t-42.5 93q0 62 42 98t128 51l80 14q31 6 31 35q0 25 -18.5 40
t-50.5 15q-69 0 -74 -53l-130 5q3 67 58 115.5t148 48.5q133 0 173 -77q21 -42 21 -113v-164q0 -17 9 -27.5t24 -10.5q30 0 52 45.5t22 132.5q0 134 -87 217.5t-220 83.5q-135 0 -226 -99t-91 -238q0 -153 93 -243.5t242 -90.5q93 0 185 46zM556 240v21q-33 -14 -44 -17
l-44 -11q-66 -17 -66 -56q0 -20 14 -33t38 -13q43 0 72.5 29t29.5 80z" />
    <glyph glyph-name="A" unicode="A" horiz-adv-x="722" 
d="M161 0h-155l280 720h153l277 -720h-164l-50 135h-291zM357 520l-90 -247h181z" />
    <glyph glyph-name="B" unicode="B" horiz-adv-x="628" 
d="M221 141h126q43 0 66.5 22t23.5 61q0 38 -24 60t-68 22h-124v-165zM329 579h-108v-132h99q36 0 55.5 17.5t19.5 48.5q0 30 -17.5 48t-48.5 18zM351 0h-283v720h265q104 0 162 -51.5t58 -138.5q0 -97 -90 -142q63 -13 100 -61t37 -114q0 -97 -65 -155t-184 -58z" />
    <glyph glyph-name="C" unicode="C" horiz-adv-x="758" 
d="M411 -12q-159 0 -267 106t-108 266t108.5 266t266.5 106q232 0 319 -190l-141 -77q-65 118 -178 118q-90 0 -150 -64.5t-60 -158.5q0 -95 60 -159t150 -64q128 0 183 129l146 -57q-32 -103 -116.5 -162t-212.5 -59z" />
    <glyph glyph-name="D" unicode="D" horiz-adv-x="711" 
d="M68 0v720h245q163 0 262.5 -98t99.5 -262q0 -157 -101.5 -258.5t-266.5 -101.5h-239zM221 579v-438h78q98 0 156.5 61t58.5 158q0 100 -57 159.5t-152 59.5h-84z" />
    <glyph glyph-name="E" unicode="E" horiz-adv-x="552" 
d="M68 0v720h431v-141h-278v-132h267v-141h-267v-165h289v-141h-442z" />
    <glyph glyph-name="F" unicode="F" horiz-adv-x="524" 
d="M68 0v720h421v-141h-268v-132h237v-141h-237v-306h-153z" />
    <glyph glyph-name="G" unicode="G" horiz-adv-x="787" 
d="M411 732q113 0 185.5 -41t117.5 -121l-136 -84q-63 97 -167 97q-90 0 -150 -64.5t-60 -158.5q0 -96 60 -159.5t155 -63.5q69 0 114 35.5t63 86.5h-219v140h365v-399h-142v89q-76 -101 -205 -101q-143 0 -249.5 107t-106.5 265q0 160 108.5 266t266.5 106z" />
    <glyph glyph-name="H" unicode="H" horiz-adv-x="724" 
d="M503 0v306h-282v-306h-153v720h153v-273h282v273h153v-720h-153z" />
    <glyph glyph-name="I" unicode="I" horiz-adv-x="289" 
d="M221 720v-720h-153v720h153z" />
    <glyph glyph-name="J" unicode="J" horiz-adv-x="391" 
d="M96 138q82 0 82 88v494h153v-514q0 -99 -58 -158.5t-163 -59.5q-47 0 -86 11l11 146q31 -7 61 -7z" />
    <glyph glyph-name="K" unicode="K" horiz-adv-x="689" 
d="M683 0h-202l-180 302l-80 -97v-205h-153v720h153v-298l230 298h204l-246 -292z" />
    <glyph glyph-name="L" unicode="L" horiz-adv-x="514" 
d="M68 0v720h153v-579h269v-141h-422z" />
    <glyph glyph-name="M" unicode="M" horiz-adv-x="887" 
d="M260 720l183 -326l185 326h191v-720h-153v499l-173 -305h-113l-169 306v-500h-143v720h192z" />
    <glyph glyph-name="N" unicode="N" horiz-adv-x="725" 
d="M495 0l-284 449v-449h-143v720h152l294 -460v460h143v-720h-162z" />
    <glyph glyph-name="O" unicode="O" horiz-adv-x="822" 
d="M36 360q0 160 107.5 266t267.5 106t267.5 -106t107.5 -266q0 -154 -108.5 -263t-266.5 -109q-160 0 -267.5 106t-107.5 266zM200 360q0 -95 60.5 -159t150.5 -64q89 0 150 66t61 157q0 95 -60.5 159t-150.5 64t-150.5 -64.5t-60.5 -158.5z" />
    <glyph glyph-name="P" unicode="P" horiz-adv-x="626" 
d="M344 579h-123v-180h115q50 0 77 24t27 65t-26 66t-70 25zM335 258h-114v-258h-153v720h280q120 0 188 -63t68 -169q0 -104 -70.5 -167t-198.5 -63z" />
    <glyph glyph-name="Q" unicode="Q" horiz-adv-x="822" 
d="M605 -134l-78 139q-57 -17 -116 -17q-160 0 -267.5 106t-107.5 266t107.5 266t267.5 106t267.5 -106t107.5 -266q0 -86 -36.5 -161.5t-100.5 -127.5l78 -136zM200 360q0 -95 60.5 -159t150.5 -64q23 0 40 4l-54 97l118 67l54 -94q53 64 53 149q0 95 -60.5 159t-150.5 64
t-150.5 -64.5t-60.5 -158.5z" />
    <glyph glyph-name="R" unicode="R" horiz-adv-x="629" 
d="M302 272h-81v-272h-153v720h269q113 0 177.5 -62t64.5 -163q0 -130 -126 -191l155 -304h-177zM333 579h-112v-166h107q41 0 64 23t23 59q0 35 -22.5 59.5t-59.5 24.5z" />
    <glyph glyph-name="S" unicode="S" horiz-adv-x="597" 
d="M268 467l146 -58q67 -26 107 -70q48 -53 48 -143q0 -91 -69 -149.5t-186 -58.5q-114 0 -185 53t-100 143l149 61q22 -57 54 -82.5t89 -25.5q42 0 64.5 17t22.5 47q0 48 -70 75l-134 51q-150 56 -150 194q0 88 65 149.5t169 61.5q97 0 154.5 -42.5t94.5 -115.5l-143 -70
q-46 79 -112 79q-34 0 -52.5 -16t-18.5 -40q0 -38 57 -60z" />
    <glyph glyph-name="T" unicode="T" horiz-adv-x="606" 
d="M380 579v-579h-153v579h-207v141h566v-141h-206z" />
    <glyph glyph-name="U" unicode="U" horiz-adv-x="700" 
d="M495 720h143v-446q0 -130 -76 -208t-212 -78q-130 0 -209 79.5t-79 210.5v442h153v-433q0 -69 38.5 -109.5t102.5 -40.5q65 0 102 39t37 106v438z" />
    <glyph glyph-name="V" unicode="V" horiz-adv-x="681" 
d="M341 216l175 504h159l-257 -720h-166l-246 720h171z" />
    <glyph glyph-name="W" unicode="W" horiz-adv-x="1059" 
d="M769 250l120 470h163l-210 -720h-163l-151 501l-156 -501h-166l-199 720h174l118 -470l141 470h185z" />
    <glyph glyph-name="X" unicode="X" horiz-adv-x="698" 
d="M486 720h179l-220 -350l240 -370h-194l-152 253l-138 -253h-188l236 381l-224 339h193l138 -230z" />
    <glyph glyph-name="Y" unicode="Y" horiz-adv-x="655" 
d="M330 456l152 264h168l-248 -418v-302h-153v302l-244 418h172z" />
    <glyph glyph-name="Z" unicode="Z" horiz-adv-x="670" 
d="M55 579v141h571v-132l-376 -447h396v-141h-618v117l387 462h-360z" />
    <glyph glyph-name="bracketleft" unicode="[" horiz-adv-x="362" 
d="M201 -57h143v-112h-261v889h261v-112h-143v-665z" />
    <glyph glyph-name="backslash" unicode="\" horiz-adv-x="401" 
d="M8 720h123l262 -720h-123z" />
    <glyph glyph-name="bracketright" unicode="]" horiz-adv-x="362" 
d="M18 -57h143v665h-143v112h261v-889h-261v112z" />
    <glyph glyph-name="asciicircum" unicode="^" horiz-adv-x="500" 
d="M-7 270l223 450h70l221 -450h-135l-120 267l-121 -267h-138z" />
    <glyph glyph-name="underscore" unicode="_" horiz-adv-x="500" 
d="M500 -73v-96h-500v96h500z" />
    <glyph glyph-name="grave" unicode="`" horiz-adv-x="500" 
d="M301 720l60 -141h-115l-104 141h159z" />
    <glyph glyph-name="a" unicode="a" horiz-adv-x="560" 
d="M354 223v29q-11 -11 -50 -22l-53 -14q-42 -11 -58 -27.5t-16 -38.5q0 -23 17.5 -37.5t47.5 -14.5q48 0 80 32t32 93zM280 553q144 0 196 -99q24 -46 24 -117v-191q0 -31 28 -31q5 0 19 4v-122q-16 -9 -47 -9q-101 0 -139 88q-58 -88 -160 -88q-72 0 -120.5 41t-48.5 110
q0 70 45.5 107.5t138.5 55.5l102 20q36 6 36 37q0 28 -22 46t-59 18q-68 0 -81 -63l-146 7q7 81 69.5 133.5t164.5 52.5z" />
    <glyph glyph-name="b" unicode="b" horiz-adv-x="649" 
d="M464 270q0 65 -36 108.5t-94 43.5t-93.5 -40.5t-35.5 -111.5q0 -68 36.5 -110t93.5 -42q59 0 94 42t35 110zM616 270q0 -126 -72.5 -204t-173.5 -78q-95 0 -160 74v-62h-146v720h146v-259q26 41 69.5 66.5t98.5 25.5q100 0 169 -79.5t69 -203.5z" />
    <glyph glyph-name="c" unicode="c" horiz-adv-x="584" 
d="M318 -12q-122 0 -203 80t-81 202t82.5 202.5t201.5 80.5q171 0 241 -146l-123 -68q-45 78 -117 78q-61 0 -99.5 -41.5t-38.5 -105.5q0 -62 38.5 -104t99.5 -42q82 0 117 87l133 -49q-25 -82 -88 -128t-163 -46z" />
    <glyph glyph-name="d" unicode="d" horiz-adv-x="649" 
d="M185 272q0 -63 37 -107.5t94 -44.5q58 0 93 39t35 113q0 65 -37 108t-93 43q-60 0 -94.5 -40.5t-34.5 -110.5zM34 272q0 124 71 202.5t174 78.5q106 0 160 -83v250h146v-720h-146v70q-59 -82 -167 -82q-99 0 -168.5 79.5t-69.5 204.5z" />
    <glyph glyph-name="e" unicode="e" horiz-adv-x="598" 
d="M185 319h230q-19 101 -116 101q-41 0 -73.5 -26.5t-40.5 -74.5zM561 226h-378q6 -45 42.5 -75t85.5 -30q64 0 97 48l142 -15q-21 -77 -84 -121.5t-155 -44.5q-124 0 -199 77t-75 205q0 124 78 203.5t186 79.5q120 0 191.5 -79.5t71.5 -201.5q0 -26 -3 -46z" />
    <glyph glyph-name="f" unicode="f" horiz-adv-x="358" 
d="M252 541h97v-132h-97v-409h-146v409h-97v132h97v8q0 83 46.5 133t133.5 50q37 0 73 -9l-12 -126q-24 4 -37 4q-58 0 -58 -56v-4z" />
    <glyph glyph-name="g" unicode="g" horiz-adv-x="633" 
d="M569 541v-452q0 -122 -71.5 -195.5t-193.5 -73.5q-115 0 -181 53t-79 127l144 17q23 -68 118 -68q58 0 87.5 36.5t29.5 101.5v33q-55 -78 -149 -78q-101 0 -170 72.5t-69 184.5t69.5 183t168.5 71q92 0 150 -81v69h146zM186 297q0 -51 34 -87.5t88 -36.5q55 0 88 32
t33 92q0 55 -33.5 90.5t-87.5 35.5q-57 0 -89.5 -33.5t-32.5 -92.5z" />
    <glyph glyph-name="h" unicode="h" horiz-adv-x="591" 
d="M210 0h-146v720h146v-266q53 99 155 99q63 0 104.5 -33t55.5 -86q8 -32 8 -98v-336h-146v298q0 43 -3 57q-11 64 -78 64q-69 0 -89 -66q-7 -21 -7 -62v-291z" />
    <glyph glyph-name="i" unicode="i" horiz-adv-x="274" 
d="M210 541v-541h-146v541h146zM49 652q0 37 24.5 57.5t63.5 20.5t63.5 -20.5t24.5 -57.5t-24.5 -57.5t-63.5 -20.5t-63.5 20.5t-24.5 57.5z" />
    <glyph glyph-name="j" unicode="j" horiz-adv-x="274" 
d="M210 541v-690l-146 -20v710h146zM49 652q0 37 24.5 57.5t63.5 20.5t63.5 -20.5t24.5 -57.5t-24.5 -57.5t-63.5 -20.5t-63.5 20.5t-24.5 57.5z" />
    <glyph glyph-name="k" unicode="k" horiz-adv-x="571" 
d="M574 0h-193l-112 190l-59 -72v-118h-146v720h146v-398l154 219h191l-185 -231z" />
    <glyph glyph-name="l" unicode="l" horiz-adv-x="274" 
d="M210 720v-720h-146v720h146z" />
    <glyph glyph-name="m" unicode="m" horiz-adv-x="878" 
d="M820 345v-345h-146v309q0 34 -3 52q-12 58 -69 58q-29 0 -51 -18.5t-30 -46.5q-6 -22 -6 -61v-293h-146v309q0 34 -3 52q-12 58 -69 58q-29 0 -51 -18.5t-30 -46.5q-6 -22 -6 -61v-293h-146v541h146v-88q25 42 64 71t84 29q104 0 144 -107q20 44 61.5 75.5t95.5 31.5
q60 0 100 -31.5t53 -82.5q8 -31 8 -94z" />
    <glyph glyph-name="n" unicode="n" horiz-adv-x="591" 
d="M387 0v298q0 43 -3 57q-11 64 -78 64q-69 0 -89 -66q-7 -21 -7 -62v-291h-146v541h146v-87q53 99 155 99q63 0 104.5 -33t55.5 -86q8 -32 8 -98v-336h-146z" />
    <glyph glyph-name="o" unicode="o" horiz-adv-x="640" 
d="M34 270q0 122 82.5 202.5t204.5 80.5q121 0 203.5 -80.5t82.5 -202.5q0 -117 -83 -199.5t-203 -82.5q-122 0 -204.5 80t-82.5 202zM181 270q0 -62 39.5 -104t99.5 -42q59 0 99.5 43.5t40.5 102.5q0 63 -40 105t-100 42t-99.5 -42t-39.5 -105z" />
    <glyph glyph-name="p" unicode="p" horiz-adv-x="649" 
d="M464 270q0 65 -36 108.5t-94 43.5t-93.5 -40.5t-35.5 -111.5q0 -68 36.5 -110t93.5 -42q59 0 94 42t35 110zM616 270q0 -126 -72.5 -204t-173.5 -78q-97 0 -160 72v-229h-146v710h146v-78q24 37 67.5 63.5t94.5 26.5q105 0 174.5 -79.5t69.5 -203.5z" />
    <glyph glyph-name="q" unicode="q" horiz-adv-x="649" 
d="M185 272q0 -63 37 -107.5t94 -44.5q58 0 93 39t35 113q0 65 -37 108t-93 43q-60 0 -94.5 -40.5t-34.5 -110.5zM34 272q0 124 72 202.5t175 78.5q105 0 158 -81v69h146v-710h-146v237q-25 -35 -67 -57.5t-96 -22.5q-102 0 -172 79.5t-70 204.5z" />
    <glyph glyph-name="r" unicode="r" horiz-adv-x="401" 
d="M398 550v-156q-34 6 -60 6q-93 0 -120 -80q-8 -26 -8 -77v-243h-146v541h146v-111q43 123 154 123q17 0 34 -3z" />
    <glyph glyph-name="s" unicode="s" horiz-adv-x="447" 
d="M422 148q0 -70 -50.5 -115t-128.5 -45q-141 0 -217 111l101 83q49 -64 118 -64q41 0 41 32q0 26 -42 46l-84 40q-110 52 -110 157q0 69 50.5 114.5t124.5 45.5q107 0 172 -88l-94 -91q-41 49 -83 49q-36 0 -36 -29q0 -20 31 -35l83 -40q66 -32 95 -70.5t29 -100.5z" />
    <glyph glyph-name="t" unicode="t" horiz-adv-x="358" 
d="M349 541v-132h-97v-409h-146v409h-97v132h97v110l146 20v-130h97z" />
    <glyph glyph-name="u" unicode="u" horiz-adv-x="591" 
d="M204 541v-302q0 -39 4 -59q12 -57 77 -57q74 0 90 66q6 24 6 61v291h146v-541h-146v88q-58 -100 -147 -100q-68 0 -109.5 34.5t-56.5 89.5q-10 36 -10 121v308h146z" />
    <glyph glyph-name="v" unicode="v" horiz-adv-x="563" 
d="M405 541h160l-208 -541h-158l-201 541h164l120 -348z" />
    <glyph glyph-name="w" unicode="w" horiz-adv-x="853" 
d="M693 541h162l-170 -541h-156l-107 334l-105 -334h-161l-158 541h169l77 -336l103 336h165l102 -336z" />
    <glyph glyph-name="x" unicode="x" horiz-adv-x="544" 
d="M353 541h173l-159 -264l173 -277h-182l-97 168l-80 -168h-177l167 294l-157 247h184l82 -145z" />
    <glyph glyph-name="y" unicode="y" horiz-adv-x="574" 
d="M413 541h163l-298 -710h-163l92 198l-209 512h166l126 -326z" />
    <glyph glyph-name="z" unicode="z" horiz-adv-x="534" 
d="M38 409v132h461v-100l-252 -309h267v-132h-495v85l264 324h-245z" />
    <glyph glyph-name="braceleft" unicode="{" horiz-adv-x="362" 
d="M120 277q54 -12 77 -35.5t23 -71.5v-157q0 -70 66 -70h58v-112h-76q-64 0 -115 38t-51 108v147q0 56 -17 83.5t-78 27.5v83q61 0 78 27.5t17 83.5v146q0 68 51 106.5t115 38.5h76v-112h-58q-66 0 -66 -70v-155q0 -48 -23 -71.5t-77 -34.5z" />
    <glyph glyph-name="bar" unicode="|" horiz-adv-x="265" 
d="M73 -169v1047h119v-1047h-119z" />
    <glyph glyph-name="braceright" unicode="}" horiz-adv-x="362" 
d="M242 277q-54 11 -77 34.5t-23 71.5v155q0 70 -66 70h-58v112h76q64 0 115 -38.5t51 -106.5v-146q0 -56 17 -83.5t78 -27.5v-83q-61 0 -78 -27.5t-17 -83.5v-147q0 -70 -51 -108t-115 -38h-76v112h58q66 0 66 70v157q0 48 23 71.5t77 35.5z" />
    <glyph glyph-name="asciitilde" unicode="~" 
d="M154 269l-101 6q0 161 131 161q40 0 93 -16l62 -19q24 -7 36 -7q35 0 35 56l101 -6q0 -83 -37 -122t-94 -39q-40 0 -93 16l-62 19q-24 7 -36 7q-35 0 -35 -56z" />
    <glyph glyph-name="uni00A0" unicode="&#xa0;" horiz-adv-x="265" 
 />
    <glyph glyph-name="exclamdown" unicode="&#xa1;" horiz-adv-x="265" 
d="M41 640q0 41 25.5 66.5t66.5 25.5t66 -25.5t25 -66.5q0 -40 -25 -65.5t-66 -25.5t-66.5 25t-25.5 66zM54 211l51 307h55l51 -307v-211h-157v211z" />
    <glyph glyph-name="cent" unicode="&#xa2;" horiz-adv-x="584" 
d="M352 720v-169q142 -13 207 -144l-123 -68q-45 78 -117 78q-61 0 -99.5 -41.5t-38.5 -105.5q0 -62 38.5 -104t99.5 -42q82 0 117 87l133 -49q-23 -74 -77.5 -119.5t-139.5 -52.5v-159h-75v160q-107 14 -175 91t-68 188q0 110 69 188t174 92v170h75z" />
    <glyph glyph-name="sterling" unicode="&#xa3;" horiz-adv-x="631" 
d="M456 329h-170q27 -54 27 -102q0 -30 -15 -60q5 -1 13 -4l16 -4l70 -19q42 -12 53 -12q31 0 31 45l130 -6q0 -90 -41 -134.5t-106 -44.5q-40 0 -109 18l-70 19q-52 13 -64 13q-37 0 -37 -55l-122 4q0 78 26 119t75 59q11 18 11 47q0 48 -49 117h-96v75h61q-12 36 -12 85
q0 103 74 173t183 70q155 0 232 -125l-124 -87q-41 63 -106 63q-41 0 -68.5 -27t-27.5 -70q0 -46 12 -82h203v-75z" />
    <glyph glyph-name="currency" unicode="&#xa4;" horiz-adv-x="1020" 
d="M850 61l-61 -61h-598l-61 61v598l62 61h597l61 -62v-597zM255 595v-470h470v470h-470zM478 223l-126 191v-191h-44v274h47l128 -194v194h102q44 0 68 -23t24 -62q0 -38 -25 -61t-71 -23h-53v-105h-50zM836 69v583l-41 42v-583h-542v-42h583zM144 651v-584l41 -41v583h540
v42h-581zM781 706h-583l-42 -41h583v-540h42v581zM199 14h582l43 41h-583v540h-42v-581zM583 453h-55v-81h53q46 0 46 40q0 41 -44 41z" />
    <glyph glyph-name="yen" unicode="&#xa5;" horiz-adv-x="661" 
d="M75 332v75h112l-182 313h172l153 -264l152 264h168l-186 -313h121v-75h-165l-18 -30v-45h183v-75h-183v-182h-153v182h-174v75h174v45l-18 30h-156z" />
    <glyph glyph-name="brokenbar" unicode="&#xa6;" horiz-adv-x="265" 
d="M73 481v397h119v-397h-119zM73 -169v397h119v-397h-119z" />
    <glyph glyph-name="section" unicode="&#xa7;" horiz-adv-x="556" 
d="M347 300l-97 60q-29 17 -41 17q-14 0 -23.5 -9t-9.5 -25q0 -34 54 -65l96 -55q20 -11 29 -11q15 0 25 8.5t10 26.5q0 27 -43 53zM412 156q75 -66 75 -149q0 -79 -54.5 -127.5t-144.5 -48.5q-80 0 -133 34t-92 98l115 79q51 -75 106 -75q56 0 56 42q0 40 -52 70l-149 88
q-103 60 -103 142q0 50 36 81.5t83 37.5q-61 59 -61 125q0 74 53.5 126.5t131.5 52.5q70 0 116.5 -28t84.5 -82l-115 -80q-35 54 -81 54q-19 0 -31 -10t-12 -25q0 -17 11.5 -30t48.5 -35l135 -80q39 -24 64.5 -61t25.5 -82q0 -51 -30 -77.5t-84 -39.5z" />
    <glyph glyph-name="dieresis" unicode="&#xa8;" horiz-adv-x="500" 
d="M85 652q0 34 20 54t54 20q33 0 53 -20t20 -54q0 -33 -20 -53t-53 -20q-34 0 -54 20t-20 53zM268 652q0 34 20 54t54 20q33 0 53 -20t20 -54q0 -33 -20 -53t-53 -20q-34 0 -54 20t-20 53z" />
    <glyph glyph-name="copyright" unicode="&#xa9;" horiz-adv-x="822" 
d="M411 148q-87 0 -146 59.5t-59 148.5t59 148.5t146 59.5q129 0 182 -120l-89 -48q-35 69 -93 69q-44 0 -73 -31t-29 -78t29 -78t73 -31q66 0 96 75l92 -38q-19 -64 -66.5 -100t-121.5 -36zM411 -12q-160 0 -266 106t-106 266t105.5 266t266.5 106t266.5 -106t105.5 -266
t-106 -266t-266 -106zM683 360q0 118 -77.5 198.5t-194.5 80.5t-194.5 -80.5t-77.5 -198.5q0 -119 77.5 -198.5t194.5 -79.5q118 0 195 79.5t77 198.5z" />
    <glyph glyph-name="ordfeminine" unicode="&#xaa;" horiz-adv-x="431" 
d="M264 357v14q-9 -10 -46 -22l-28 -8q-45 -14 -45 -44q0 -34 43 -34q33 0 54.5 24.5t21.5 69.5zM215 597q52 0 92 -18t57 -51q17 -34 17 -98v-136q0 -10 6.5 -16.5t15.5 -6.5q6 0 11 1v-98q-14 -3 -31 -3q-92 0 -111 74q-39 -74 -119 -74q-54 0 -89 32t-35 85q0 48 31 76
t96 41l87 17q21 4 21 27q0 19 -14 31t-40 12q-24 0 -39 -13t-17 -35l-118 9q6 62 52.5 103t126.5 41z" />
    <glyph glyph-name="guillemotleft" unicode="&#xab;" horiz-adv-x="476" 
d="M30 349l204 159v-152l-111 -85l111 -85v-152l-204 159v156zM234 349l204 159v-152l-111 -85l111 -85v-152l-204 159v156z" />
    <glyph glyph-name="logicalnot" unicode="&#xac;" 
d="M507 519v-318h-118v200h-332v118h450z" />
    <glyph glyph-name="uni00AD" unicode="&#xad;" horiz-adv-x="265" 
d="M243 337v-132h-220v132h220z" />
    <glyph glyph-name="registered" unicode="&#xae;" horiz-adv-x="822" 
d="M394 306h-22v-151h-101v402h152q64 0 100 -34t36 -91q0 -72 -65 -104l91 -173h-117zM420 462h-48v-69h46q41 0 41 35q0 34 -39 34zM411 -12q-160 0 -266 106t-106 266t105.5 266t266.5 106t266.5 -106t105.5 -266t-106 -266t-266 -106zM683 360q0 118 -77.5 198.5
t-194.5 80.5t-194.5 -80.5t-77.5 -198.5q0 -119 77.5 -198.5t194.5 -79.5q118 0 195 79.5t77 198.5z" />
    <glyph glyph-name="macron" unicode="&#xaf;" horiz-adv-x="500" 
d="M98 624v96h304v-96h-304z" />
    <glyph glyph-name="degree" unicode="&#xb0;" horiz-adv-x="408" 
d="M31 559q0 74 50 123.5t123 49.5t123 -49.5t50 -123.5q0 -71 -50.5 -121.5t-122.5 -50.5q-73 0 -123 49t-50 123zM138 559q0 -29 19 -47.5t47 -18.5t46.5 19t18.5 47q0 30 -18.5 49t-46.5 19t-47 -19t-19 -49z" />
    <glyph glyph-name="plusminus" unicode="&#xb1;" 
d="M341 233h166v-118h-450v118h166v102h-166v118h166v146h118v-146h166v-118h-166v-102z" />
    <glyph glyph-name="twosuperior" unicode="&#xb2;" horiz-adv-x="406" 
d="M375 292v-112h-357v28q0 50 12 86q16 47 82 103l82 69q33 27 44 47t11 43q0 26 -18 41.5t-44 15.5q-50 0 -76 -62l-97 42q18 58 67.5 97t112.5 39q80 0 127 -49t47 -123q0 -53 -24.5 -91t-87.5 -86l-68 -52q-27 -21 -33 -36h220z" />
    <glyph glyph-name="threesuperior" unicode="&#xb3;" horiz-adv-x="409" 
d="M198 286q27 0 44.5 16t17.5 43q0 43 -40 61q-15 7 -54 7h-34v102h26q37 0 58 8q30 10 30 45q0 20 -14 34t-35 14q-39 0 -71 -38l-82 65q63 86 155 86q71 0 115 -43.5t44 -110.5q0 -79 -64 -109q38 -14 61.5 -49t23.5 -81q0 -78 -48.5 -121.5t-123.5 -43.5
q-122 0 -183 101l89 65q35 -51 85 -51z" />
    <glyph glyph-name="acute" unicode="&#xb4;" horiz-adv-x="500" 
d="M138 579l60 141h159l-104 -141h-115z" />
    <glyph glyph-name="mu" unicode="&#xb5;" horiz-adv-x="597" 
d="M64 -169v710h146v-302q0 -39 4 -59q12 -57 77 -57q74 0 90 66q6 24 6 61v291h146v-541h-146v88q-58 -100 -147 -100q-12 0 -30 2v-159h-146z" />
    <glyph glyph-name="paragraph" unicode="&#xb6;" horiz-adv-x="672" 
d="M255 -169v516q-97 0 -156.5 51.5t-59.5 131.5q0 97 62 143.5t172 46.5h328v-889h-119v774h-109v-774h-118z" />
    <glyph glyph-name="periodcentered" unicode="&#xb7;" horiz-adv-x="265" 
d="M41 361q0 41 25.5 66t66.5 25t66 -25t25 -66t-25 -66.5t-66 -25.5t-66.5 25.5t-25.5 66.5z" />
    <glyph glyph-name="cedilla" unicode="&#xb8;" horiz-adv-x="500" 
d="M243 -181q-53 0 -100 22l17 50q33 -14 60 -14q36 0 36 21q0 18 -25 18q-10 0 -30 -8l-24 32l59 80h43l-39 -56q15 5 34 5q36 0 59 -21t23 -49q0 -80 -113 -80z" />
    <glyph glyph-name="onesuperior" unicode="&#xb9;" horiz-adv-x="325" 
d="M19 542v94h17q104 0 145 84h86v-540h-122v362h-126z" />
    <glyph glyph-name="ordmasculine" unicode="&#xba;" horiz-adv-x="491" 
d="M27 383q0 92 62.5 153t155.5 61q91 0 153 -61t62 -153q0 -88 -62.5 -150t-152.5 -62q-92 0 -155 60.5t-63 151.5zM146 383q0 -43 28 -72.5t70 -29.5t69.5 30t27.5 72q0 45 -27.5 75t-69.5 30t-70 -30t-28 -75z" />
    <glyph glyph-name="guillemotright" unicode="&#xbb;" horiz-adv-x="476" 
d="M38 508l204 -159v-156l-204 -159v152l111 85l-111 85v152zM242 508l204 -159v-156l-204 -159v152l111 85l-111 85v152z" />
    <glyph glyph-name="onequarter" unicode="&#xbc;" horiz-adv-x="1034" 
d="M19 542v94h17q104 0 145 84h86v-540h-122v362h-126zM279 0l298 720h124l-296 -720h-126zM844 399l-118 -169h118v169zM1013 230v-103h-52v-127h-117v127h-223v115l219 298h121v-310h52z" />
    <glyph glyph-name="onehalf" unicode="&#xbd;" horiz-adv-x="1061" 
d="M19 542v94h17q104 0 145 84h86v-540h-122v362h-126zM279 0l298 720h124l-296 -720h-126zM1030 112v-112h-357v28q0 50 12 86q16 47 82 103l82 69q33 27 44 47t11 43q0 26 -18 41.5t-44 15.5q-50 0 -76 -62l-97 42q18 58 67.5 97t112.5 39q80 0 127 -49t47 -123
q0 -53 -24.5 -91t-87.5 -86l-68 -52q-27 -21 -33 -36h220z" />
    <glyph glyph-name="threequarters" unicode="&#xbe;" horiz-adv-x="1118" 
d="M198 286q27 0 44.5 16t17.5 43q0 43 -40 61q-15 7 -54 7h-34v102h26q37 0 58 8q30 10 30 45q0 20 -14 34t-35 14q-39 0 -71 -38l-82 65q63 86 155 86q71 0 115 -43.5t44 -110.5q0 -79 -64 -109q38 -14 61.5 -49t23.5 -81q0 -78 -48.5 -121.5t-123.5 -43.5
q-122 0 -183 101l89 65q35 -51 85 -51zM363 0l298 720h124l-296 -720h-126zM928 399l-118 -169h118v169zM1097 230v-103h-52v-127h-117v127h-223v115l219 298h121v-310h52z" />
    <glyph glyph-name="questiondown" unicode="&#xbf;" horiz-adv-x="485" 
d="M219 518h66q11 -36 11 -65q0 -65 -51 -116l-34 -34q-45 -45 -45 -93q0 -35 21 -59.5t55 -24.5q61 0 98 70l105 -68q-25 -59 -80 -99.5t-125 -40.5q-98 0 -158 60t-60 152q0 101 87 177l58 52q28 25 38.5 42.5t13.5 46.5zM335 640q0 -41 -25.5 -66t-66.5 -25t-66 25.5
t-25 65.5q0 41 25 66.5t66 25.5t66.5 -25.5t25.5 -66.5z" />
    <glyph glyph-name="Agrave" unicode="&#xc0;" horiz-adv-x="722" 
d="M161 0h-155l280 720h153l277 -720h-164l-50 135h-291zM357 520l-90 -247h181zM378 882l50 -124h-115l-104 124h169z" />
    <glyph glyph-name="Aacute" unicode="&#xc1;" horiz-adv-x="722" 
d="M161 0h-155l280 720h153l277 -720h-164l-50 135h-291zM357 520l-90 -247h181zM285 758l50 124h169l-104 -124h-115z" />
    <glyph glyph-name="Acircumflex" unicode="&#xc2;" horiz-adv-x="722" 
d="M161 0h-155l280 720h153l277 -720h-164l-50 135h-291zM357 520l-90 -247h181zM433 882l122 -125h-150l-48 46l-48 -46h-150l121 125h153z" />
    <glyph glyph-name="Atilde" unicode="&#xc3;" horiz-adv-x="722" 
d="M161 0h-155l280 720h153l277 -720h-164l-50 135h-291zM357 520l-90 -247h181zM346 771q-47 17 -64 17q-23 0 -26 -38l-87 13q2 62 33.5 98t80.5 36q18 0 79 -21q44 -16 64 -16q23 0 27 37l86 -9q-2 -63 -33.5 -100t-80.5 -37q-25 0 -79 20z" />
    <glyph glyph-name="Adieresis" unicode="&#xc4;" horiz-adv-x="722" 
d="M161 0h-155l280 720h153l277 -720h-164l-50 135h-291zM357 520l-90 -247h181zM180 822q0 32 22.5 49.5t57.5 17.5q34 0 56.5 -17.5t22.5 -49.5q0 -33 -22 -50.5t-57 -17.5t-57.5 17.5t-22.5 50.5zM375 822q0 32 22.5 49.5t57.5 17.5t57.5 -17.5t22.5 -49.5t-22.5 -50
t-57.5 -18t-57.5 17.5t-22.5 50.5z" />
    <glyph glyph-name="Aring" unicode="&#xc5;" horiz-adv-x="722" 
d="M245 784q0 48 34 81t81 33t81 -33t34 -81q0 -45 -31 -78l272 -706h-164l-50 135h-291l-50 -135h-155l273 702q-34 34 -34 82zM357 520l-90 -247h181zM322 784q0 -16 11 -27.5t27 -11.5t27 11.5t11 27.5q0 17 -11 28t-27 11t-27 -11.5t-11 -27.5z" />
    <glyph glyph-name="AE" unicode="&#xc6;" horiz-adv-x="1007" 
d="M523 0v139h-254l-82 -139h-181l454 720h494v-141h-278v-132h267v-141h-267v-165h289v-141h-442zM523 566l-171 -289h171v289z" />
    <glyph glyph-name="Ccedilla" unicode="&#xc7;" horiz-adv-x="758" 
d="M388 -181q-53 0 -100 22l17 50q33 -14 60 -14q36 0 36 21q0 18 -25 18q-10 0 -30 -8l-24 32l37 51q-140 17 -231.5 120t-91.5 249q0 160 108.5 266t266.5 106q232 0 319 -190l-141 -77q-65 118 -178 118q-90 0 -150 -64.5t-60 -158.5q0 -95 60 -159t150 -64
q128 0 183 129l146 -57q-32 -103 -116.5 -162t-212.5 -59q-1 0 -4 0.5t-5 0.5l-17 -25q15 5 34 5q36 0 59 -21t23 -49q0 -80 -113 -80z" />
    <glyph glyph-name="Egrave" unicode="&#xc8;" horiz-adv-x="552" 
d="M68 0v720h431v-141h-278v-132h267v-141h-267v-165h289v-141h-442zM300 882l50 -124h-115l-104 124h169z" />
    <glyph glyph-name="Eacute" unicode="&#xc9;" horiz-adv-x="552" 
d="M68 0v720h431v-141h-278v-132h267v-141h-267v-165h289v-141h-442zM214 758l50 124h169l-104 -124h-115z" />
    <glyph glyph-name="Ecircumflex" unicode="&#xca;" horiz-adv-x="552" 
d="M68 0v720h431v-141h-278v-132h267v-141h-267v-165h289v-141h-442zM357 882l122 -125h-150l-48 46l-48 -46h-150l121 125h153z" />
    <glyph glyph-name="Edieresis" unicode="&#xcb;" horiz-adv-x="552" 
d="M68 0v720h431v-141h-278v-132h267v-141h-267v-165h289v-141h-442zM104 822q0 32 22.5 49.5t57.5 17.5q34 0 56.5 -17.5t22.5 -49.5q0 -33 -22 -50.5t-57 -17.5t-57.5 17.5t-22.5 50.5zM299 822q0 32 22.5 49.5t57.5 17.5t57.5 -17.5t22.5 -49.5t-22.5 -50t-57.5 -18
t-57.5 17.5t-22.5 50.5z" />
    <glyph glyph-name="Igrave" unicode="&#xcc;" horiz-adv-x="289" 
d="M221 720v-720h-153v720h153zM167 882l50 -124h-115l-104 124h169z" />
    <glyph glyph-name="Iacute" unicode="&#xcd;" horiz-adv-x="289" 
d="M221 720v-720h-153v720h153zM80 758l50 124h169l-104 -124h-115z" />
    <glyph glyph-name="Icircumflex" unicode="&#xce;" horiz-adv-x="289" 
d="M221 720v-720h-153v720h153zM221 882l122 -125h-150l-48 46l-48 -46h-150l121 125h153z" />
    <glyph glyph-name="Idieresis" unicode="&#xcf;" horiz-adv-x="289" 
d="M221 720v-720h-153v720h153zM-33 822q0 32 22.5 49.5t57.5 17.5q34 0 56.5 -17.5t22.5 -49.5q0 -33 -22 -50.5t-57 -17.5t-57.5 17.5t-22.5 50.5zM162 822q0 32 22.5 49.5t57.5 17.5t57.5 -17.5t22.5 -49.5t-22.5 -50t-57.5 -18t-57.5 17.5t-22.5 50.5z" />
    <glyph glyph-name="Eth" unicode="&#xd0;" horiz-adv-x="743" 
d="M7 322v75h93v323h245q163 0 262.5 -98t99.5 -262q0 -157 -101.5 -258.5t-266.5 -101.5h-239v322h-93zM253 579v-182h185v-75h-185v-181h78q98 0 156.5 61t58.5 158q0 100 -57 159.5t-152 59.5h-84z" />
    <glyph glyph-name="Ntilde" unicode="&#xd1;" horiz-adv-x="725" 
d="M495 0l-284 449v-449h-143v720h152l294 -460v460h143v-720h-162zM365 771q-47 17 -64 17q-23 0 -26 -38l-87 13q2 62 33.5 98t80.5 36q18 0 79 -21q44 -16 64 -16q23 0 27 37l86 -9q-2 -63 -33.5 -100t-80.5 -37q-25 0 -79 20z" />
    <glyph glyph-name="Ograve" unicode="&#xd2;" horiz-adv-x="822" 
d="M36 360q0 160 107.5 266t267.5 106t267.5 -106t107.5 -266q0 -154 -108.5 -263t-266.5 -109q-160 0 -267.5 106t-107.5 266zM200 360q0 -95 60.5 -159t150.5 -64q89 0 150 66t61 157q0 95 -60.5 159t-150.5 64t-150.5 -64.5t-60.5 -158.5zM432 882l50 -124h-115l-104 124
h169z" />
    <glyph glyph-name="Oacute" unicode="&#xd3;" horiz-adv-x="822" 
d="M36 360q0 160 107.5 266t267.5 106t267.5 -106t107.5 -266q0 -154 -108.5 -263t-266.5 -109q-160 0 -267.5 106t-107.5 266zM200 360q0 -95 60.5 -159t150.5 -64q89 0 150 66t61 157q0 95 -60.5 159t-150.5 64t-150.5 -64.5t-60.5 -158.5zM339 758l50 124h169l-104 -124
h-115z" />
    <glyph glyph-name="Ocircumflex" unicode="&#xd4;" horiz-adv-x="822" 
d="M36 360q0 160 107.5 266t267.5 106t267.5 -106t107.5 -266q0 -154 -108.5 -263t-266.5 -109q-160 0 -267.5 106t-107.5 266zM200 360q0 -95 60.5 -159t150.5 -64q89 0 150 66t61 157q0 95 -60.5 159t-150.5 64t-150.5 -64.5t-60.5 -158.5zM487 882l122 -125h-150l-48 46
l-48 -46h-150l121 125h153z" />
    <glyph glyph-name="Otilde" unicode="&#xd5;" horiz-adv-x="822" 
d="M36 360q0 160 107.5 266t267.5 106t267.5 -106t107.5 -266q0 -154 -108.5 -263t-266.5 -109q-160 0 -267.5 106t-107.5 266zM200 360q0 -95 60.5 -159t150.5 -64q89 0 150 66t61 157q0 95 -60.5 159t-150.5 64t-150.5 -64.5t-60.5 -158.5zM403 771q-47 17 -64 17
q-23 0 -26 -38l-87 13q2 62 33.5 98t80.5 36q18 0 79 -21q44 -16 64 -16q23 0 27 37l86 -9q-2 -63 -33.5 -100t-80.5 -37q-25 0 -79 20z" />
    <glyph glyph-name="Odieresis" unicode="&#xd6;" horiz-adv-x="822" 
d="M36 360q0 160 107.5 266t267.5 106t267.5 -106t107.5 -266q0 -154 -108.5 -263t-266.5 -109q-160 0 -267.5 106t-107.5 266zM200 360q0 -95 60.5 -159t150.5 -64q89 0 150 66t61 157q0 95 -60.5 159t-150.5 64t-150.5 -64.5t-60.5 -158.5zM234 822q0 32 22.5 49.5
t57.5 17.5q34 0 56.5 -17.5t22.5 -49.5q0 -33 -22 -50.5t-57 -17.5t-57.5 17.5t-22.5 50.5zM429 822q0 32 22.5 49.5t57.5 17.5t57.5 -17.5t22.5 -49.5t-22.5 -50t-57.5 -18t-57.5 17.5t-22.5 50.5z" />
    <glyph glyph-name="multiply" unicode="&#xd7;" 
d="M282 444l118 116l82 -82l-116 -118l116 -118l-82 -82l-118 116l-118 -116l-82 82l116 118l-116 118l82 82z" />
    <glyph glyph-name="Oslash" unicode="&#xd8;" horiz-adv-x="828" 
d="M17 17l104 104q-82 105 -82 239q0 160 108 266t268 106q136 0 239 -81l105 106l52 -52l-105 -105q84 -105 84 -240q0 -154 -108.5 -263t-266.5 -109q-137 0 -239 80l-105 -105zM203 360q0 -67 33 -124l306 304q-56 43 -127 43q-90 0 -151 -64.5t-61 -158.5zM626 360
q0 68 -35 125l-304 -305q54 -43 128 -43q89 0 150 66t61 157z" />
    <glyph glyph-name="Ugrave" unicode="&#xd9;" horiz-adv-x="700" 
d="M495 720h143v-446q0 -130 -76 -208t-212 -78q-130 0 -209 79.5t-79 210.5v442h153v-433q0 -69 38.5 -109.5t102.5 -40.5q65 0 102 39t37 106v438zM371 882l50 -124h-115l-104 124h169z" />
    <glyph glyph-name="Uacute" unicode="&#xda;" horiz-adv-x="700" 
d="M495 720h143v-446q0 -130 -76 -208t-212 -78q-130 0 -209 79.5t-79 210.5v442h153v-433q0 -69 38.5 -109.5t102.5 -40.5q65 0 102 39t37 106v438zM278 758l50 124h169l-104 -124h-115z" />
    <glyph glyph-name="Ucircumflex" unicode="&#xdb;" horiz-adv-x="700" 
d="M495 720h143v-446q0 -130 -76 -208t-212 -78q-130 0 -209 79.5t-79 210.5v442h153v-433q0 -69 38.5 -109.5t102.5 -40.5q65 0 102 39t37 106v438zM426 882l122 -125h-150l-48 46l-48 -46h-150l121 125h153z" />
    <glyph glyph-name="Udieresis" unicode="&#xdc;" horiz-adv-x="700" 
d="M495 720h143v-446q0 -130 -76 -208t-212 -78q-130 0 -209 79.5t-79 210.5v442h153v-433q0 -69 38.5 -109.5t102.5 -40.5q65 0 102 39t37 106v438zM180 822q0 32 22.5 49.5t57.5 17.5q34 0 56.5 -17.5t22.5 -49.5q0 -33 -22 -50.5t-57 -17.5t-57.5 17.5t-22.5 50.5z
M375 822q0 32 22.5 49.5t57.5 17.5t57.5 -17.5t22.5 -49.5t-22.5 -50t-57.5 -18t-57.5 17.5t-22.5 50.5z" />
    <glyph glyph-name="Yacute" unicode="&#xdd;" horiz-adv-x="655" 
d="M330 456l152 264h168l-248 -418v-302h-153v302l-244 418h172zM261 758l50 124h169l-104 -124h-115z" />
    <glyph glyph-name="Thorn" unicode="&#xde;" horiz-adv-x="638" 
d="M338 145h-114v-145h-153v720h153v-113h127q120 0 188 -62.5t68 -168.5q0 -105 -70.5 -168t-198.5 -63zM346 466h-122v-180h114q50 0 77.5 24t27.5 65t-26 66t-71 25z" />
    <glyph glyph-name="germandbls" unicode="&#xdf;" horiz-adv-x="559" 
d="M64 0v497q0 106 59.5 170.5t155.5 64.5t153.5 -55.5t57.5 -140.5q0 -98 -86 -141q60 -20 98 -68.5t38 -125.5q0 -97 -65.5 -155t-168.5 -58q-22 0 -48 6l6 133q21 -3 34 -3q43 0 69.5 25.5t26.5 67.5q0 66 -61 92q-22 9 -80 9h-5v132q39 0 61 9q37 16 37 65
q0 31 -18 51.5t-47 20.5q-32 0 -51.5 -22.5t-19.5 -62.5v-511h-146z" />
    <glyph glyph-name="agrave" unicode="&#xe0;" horiz-adv-x="560" 
d="M354 223v29q-11 -11 -50 -22l-53 -14q-42 -11 -58 -27.5t-16 -38.5q0 -23 17.5 -37.5t47.5 -14.5q48 0 80 32t32 93zM280 553q144 0 196 -99q24 -46 24 -117v-191q0 -31 28 -31q5 0 19 4v-122q-16 -9 -47 -9q-101 0 -139 88q-58 -88 -160 -88q-72 0 -120.5 41t-48.5 110
q0 70 45.5 107.5t138.5 55.5l102 20q36 6 36 37q0 28 -22 46t-59 18q-68 0 -81 -63l-146 7q7 81 69.5 133.5t164.5 52.5zM295 720l60 -141h-115l-104 141h159z" />
    <glyph glyph-name="aacute" unicode="&#xe1;" horiz-adv-x="560" 
d="M354 223v29q-11 -11 -50 -22l-53 -14q-42 -11 -58 -27.5t-16 -38.5q0 -23 17.5 -37.5t47.5 -14.5q48 0 80 32t32 93zM280 553q144 0 196 -99q24 -46 24 -117v-191q0 -31 28 -31q5 0 19 4v-122q-16 -9 -47 -9q-101 0 -139 88q-58 -88 -160 -88q-72 0 -120.5 41t-48.5 110
q0 70 45.5 107.5t138.5 55.5l102 20q36 6 36 37q0 28 -22 46t-59 18q-68 0 -81 -63l-146 7q7 81 69.5 133.5t164.5 52.5zM208 579l60 141h159l-104 -141h-115z" />
    <glyph glyph-name="acircumflex" unicode="&#xe2;" horiz-adv-x="560" 
d="M354 223v29q-11 -11 -50 -22l-53 -14q-42 -11 -58 -27.5t-16 -38.5q0 -23 17.5 -37.5t47.5 -14.5q48 0 80 32t32 93zM280 553q144 0 196 -99q24 -46 24 -117v-191q0 -31 28 -31q5 0 19 4v-122q-16 -9 -47 -9q-101 0 -139 88q-58 -88 -160 -88q-72 0 -120.5 41t-48.5 110
q0 70 45.5 107.5t138.5 55.5l102 20q36 6 36 37q0 28 -22 46t-59 18q-68 0 -81 -63l-146 7q7 81 69.5 133.5t164.5 52.5zM350 720l118 -141h-139l-49 51l-48 -51h-140l117 141h141z" />
    <glyph glyph-name="atilde" unicode="&#xe3;" horiz-adv-x="560" 
d="M354 223v29q-11 -11 -50 -22l-53 -14q-42 -11 -58 -27.5t-16 -38.5q0 -23 17.5 -37.5t47.5 -14.5q48 0 80 32t32 93zM280 553q144 0 196 -99q24 -46 24 -117v-191q0 -31 28 -31q5 0 19 4v-122q-16 -9 -47 -9q-101 0 -139 88q-58 -88 -160 -88q-72 0 -120.5 41t-48.5 110
q0 70 45.5 107.5t138.5 55.5l102 20q36 6 36 37q0 28 -22 46t-59 18q-68 0 -81 -63l-146 7q7 81 69.5 133.5t164.5 52.5zM272 596q-47 17 -64 17q-23 0 -26 -38l-87 13q2 62 33.5 98t80.5 36q18 0 79 -21q44 -16 64 -16q23 0 27 37l86 -9q-2 -63 -33.5 -100t-80.5 -37
q-25 0 -79 20z" />
    <glyph glyph-name="adieresis" unicode="&#xe4;" horiz-adv-x="560" 
d="M354 223v29q-11 -11 -50 -22l-53 -14q-42 -11 -58 -27.5t-16 -38.5q0 -23 17.5 -37.5t47.5 -14.5q48 0 80 32t32 93zM280 553q144 0 196 -99q24 -46 24 -117v-191q0 -31 28 -31q5 0 19 4v-122q-16 -9 -47 -9q-101 0 -139 88q-58 -88 -160 -88q-72 0 -120.5 41t-48.5 110
q0 70 45.5 107.5t138.5 55.5l102 20q36 6 36 37q0 28 -22 46t-59 18q-68 0 -81 -63l-146 7q7 81 69.5 133.5t164.5 52.5zM115 652q0 34 20 54t54 20q33 0 53 -20t20 -54q0 -33 -20 -53t-53 -20q-34 0 -54 20t-20 53zM298 652q0 34 20 54t54 20q33 0 53 -20t20 -54
q0 -33 -20 -53t-53 -20q-34 0 -54 20t-20 53z" />
    <glyph glyph-name="aring" unicode="&#xe5;" horiz-adv-x="560" 
d="M354 223v29q-11 -11 -50 -22l-53 -14q-42 -11 -58 -27.5t-16 -38.5q0 -23 17.5 -37.5t47.5 -14.5q48 0 80 32t32 93zM280 553q144 0 196 -99q24 -46 24 -117v-191q0 -31 28 -31q5 0 19 4v-122q-16 -9 -47 -9q-101 0 -139 88q-58 -88 -160 -88q-72 0 -120.5 41t-48.5 110
q0 70 45.5 107.5t138.5 55.5l102 20q36 6 36 37q0 28 -22 46t-59 18q-68 0 -81 -63l-146 7q7 81 69.5 133.5t164.5 52.5zM165 693q0 48 34 81t81 33t81 -33t34 -81t-34 -81t-81 -33t-81 33t-34 81zM242 693q0 -16 11 -27.5t27 -11.5t27 11.5t11 27.5q0 17 -11 28t-27 11
t-27 -11.5t-11 -27.5z" />
    <glyph glyph-name="ae" unicode="&#xe6;" horiz-adv-x="916" 
d="M210 -12q-80 0 -129 40.5t-49 110.5t45.5 107.5t138.5 55.5l102 20q36 6 36 37q0 28 -22 46t-59 18q-68 0 -81 -63l-146 7q7 81 69.5 133.5t164.5 52.5q112 0 170 -63q74 63 169 63q120 0 191.5 -79.5t71.5 -201.5q0 -26 -3 -46h-378q6 -45 42.5 -75t85.5 -30q64 0 97 48
l142 -15q-21 -77 -84 -121.5t-155 -44.5q-161 0 -233 120q-53 -120 -186 -120zM503 319h230q-19 101 -116 101q-41 0 -73.5 -26.5t-40.5 -74.5zM354 223v29q-11 -11 -50 -22l-53 -14q-42 -11 -58 -27.5t-16 -38.5q0 -23 17.5 -37.5t47.5 -14.5q48 0 80 32t32 93z" />
    <glyph glyph-name="ccedilla" unicode="&#xe7;" horiz-adv-x="584" 
d="M294 -181q-53 0 -100 22l17 50q33 -14 60 -14q36 0 36 21q0 18 -25 18q-10 0 -30 -8l-24 32l38 52q-102 17 -167 93.5t-65 184.5q0 122 82.5 202.5t201.5 80.5q171 0 241 -146l-123 -68q-45 78 -117 78q-61 0 -99.5 -41.5t-38.5 -105.5q0 -62 38.5 -104t99.5 -42
q82 0 117 87l133 -49q-25 -82 -88 -128t-163 -46h-11l-16 -24q15 5 34 5q36 0 59 -21t23 -49q0 -80 -113 -80z" />
    <glyph glyph-name="egrave" unicode="&#xe8;" horiz-adv-x="598" 
d="M185 319h230q-19 101 -116 101q-41 0 -73.5 -26.5t-40.5 -74.5zM561 226h-378q6 -45 42.5 -75t85.5 -30q64 0 97 48l142 -15q-21 -77 -84 -121.5t-155 -44.5q-124 0 -199 77t-75 205q0 124 78 203.5t186 79.5q120 0 191.5 -79.5t71.5 -201.5q0 -26 -3 -46zM312 720
l60 -141h-115l-104 141h159z" />
    <glyph glyph-name="eacute" unicode="&#xe9;" horiz-adv-x="598" 
d="M185 319h230q-19 101 -116 101q-41 0 -73.5 -26.5t-40.5 -74.5zM561 226h-378q6 -45 42.5 -75t85.5 -30q64 0 97 48l142 -15q-21 -77 -84 -121.5t-155 -44.5q-124 0 -199 77t-75 205q0 124 78 203.5t186 79.5q120 0 191.5 -79.5t71.5 -201.5q0 -26 -3 -46zM237 579
l60 141h159l-104 -141h-115z" />
    <glyph glyph-name="ecircumflex" unicode="&#xea;" horiz-adv-x="598" 
d="M185 319h230q-19 101 -116 101q-41 0 -73.5 -26.5t-40.5 -74.5zM561 226h-378q6 -45 42.5 -75t85.5 -30q64 0 97 48l142 -15q-21 -77 -84 -121.5t-155 -44.5q-124 0 -199 77t-75 205q0 124 78 203.5t186 79.5q120 0 191.5 -79.5t71.5 -201.5q0 -26 -3 -46zM377 720
l118 -141h-139l-49 51l-48 -51h-140l117 141h141z" />
    <glyph glyph-name="edieresis" unicode="&#xeb;" horiz-adv-x="598" 
d="M185 319h230q-19 101 -116 101q-41 0 -73.5 -26.5t-40.5 -74.5zM561 226h-378q6 -45 42.5 -75t85.5 -30q64 0 97 48l142 -15q-21 -77 -84 -121.5t-155 -44.5q-124 0 -199 77t-75 205q0 124 78 203.5t186 79.5q120 0 191.5 -79.5t71.5 -201.5q0 -26 -3 -46zM142 652
q0 34 20 54t54 20q33 0 53 -20t20 -54q0 -33 -20 -53t-53 -20q-34 0 -54 20t-20 53zM325 652q0 34 20 54t54 20q33 0 53 -20t20 -54q0 -33 -20 -53t-53 -20q-34 0 -54 20t-20 53z" />
    <glyph glyph-name="igrave" unicode="&#xec;" horiz-adv-x="280" 
d="M150 720l60 -141h-115l-104 141h159zM213 541v-541h-146v541h146z" />
    <glyph glyph-name="iacute" unicode="&#xed;" horiz-adv-x="280" 
d="M71 579l60 141h159l-104 -141h-115zM213 541v-541h-146v541h146z" />
    <glyph glyph-name="icircumflex" unicode="&#xee;" horiz-adv-x="280" 
d="M213 541v-541h-146v541h146zM210 720l118 -141h-139l-49 51l-48 -51h-140l117 141h141z" />
    <glyph glyph-name="idieresis" unicode="&#xef;" horiz-adv-x="280" 
d="M-25 652q0 34 20 54t54 20q33 0 53 -20t20 -54q0 -33 -20 -53t-53 -20q-34 0 -54 20t-20 53zM158 652q0 34 20 54t54 20q33 0 53 -20t20 -54q0 -33 -20 -53t-53 -20q-34 0 -54 20t-20 53zM213 541v-541h-146v541h146z" />
    <glyph glyph-name="eth" unicode="&#xf0;" horiz-adv-x="627" 
d="M229 720h159l26 -49l119 20l13 -74l-94 -17l77 -144q63 -117 63 -203q0 -111 -78.5 -188t-198.5 -77q-117 0 -196.5 76.5t-79.5 192.5q0 113 80.5 183.5t193.5 70.5q4 0 28 -3l-36 68l-137 -24l-12 75l112 18zM186 253q0 -55 37 -92t93 -37q55 0 92 37.5t37 91.5
q0 57 -36.5 94t-92.5 37t-93 -37t-37 -94z" />
    <glyph glyph-name="ntilde" unicode="&#xf1;" horiz-adv-x="591" 
d="M387 0v298q0 43 -3 57q-11 64 -78 64q-69 0 -89 -66q-7 -21 -7 -62v-291h-146v541h146v-87q53 99 155 99q63 0 104.5 -33t55.5 -86q8 -32 8 -98v-336h-146zM295 596q-47 17 -64 17q-23 0 -26 -38l-87 13q2 62 33.5 98t80.5 36q18 0 79 -21q44 -16 64 -16q23 0 27 37
l86 -9q-2 -63 -33.5 -100t-80.5 -37q-25 0 -79 20z" />
    <glyph glyph-name="ograve" unicode="&#xf2;" horiz-adv-x="640" 
d="M34 270q0 122 82.5 202.5t204.5 80.5q121 0 203.5 -80.5t82.5 -202.5q0 -117 -83 -199.5t-203 -82.5q-122 0 -204.5 80t-82.5 202zM181 270q0 -62 39.5 -104t99.5 -42q59 0 99.5 43.5t40.5 102.5q0 63 -40 105t-100 42t-99.5 -42t-39.5 -105zM328 720l60 -141h-115
l-104 141h159z" />
    <glyph glyph-name="oacute" unicode="&#xf3;" horiz-adv-x="640" 
d="M34 270q0 122 82.5 202.5t204.5 80.5q121 0 203.5 -80.5t82.5 -202.5q0 -117 -83 -199.5t-203 -82.5q-122 0 -204.5 80t-82.5 202zM181 270q0 -62 39.5 -104t99.5 -42q59 0 99.5 43.5t40.5 102.5q0 63 -40 105t-100 42t-99.5 -42t-39.5 -105zM248 579l60 141h159
l-104 -141h-115z" />
    <glyph glyph-name="ocircumflex" unicode="&#xf4;" horiz-adv-x="640" 
d="M34 270q0 122 82.5 202.5t204.5 80.5q121 0 203.5 -80.5t82.5 -202.5q0 -117 -83 -199.5t-203 -82.5q-122 0 -204.5 80t-82.5 202zM181 270q0 -62 39.5 -104t99.5 -42q59 0 99.5 43.5t40.5 102.5q0 63 -40 105t-100 42t-99.5 -42t-39.5 -105zM388 720l118 -141h-139
l-49 51l-48 -51h-140l117 141h141z" />
    <glyph glyph-name="otilde" unicode="&#xf5;" horiz-adv-x="640" 
d="M34 270q0 122 82.5 202.5t204.5 80.5q121 0 203.5 -80.5t82.5 -202.5q0 -117 -83 -199.5t-203 -82.5q-122 0 -204.5 80t-82.5 202zM181 270q0 -62 39.5 -104t99.5 -42q59 0 99.5 43.5t40.5 102.5q0 63 -40 105t-100 42t-99.5 -42t-39.5 -105zM310 596q-47 17 -64 17
q-23 0 -26 -38l-87 13q2 62 33.5 98t80.5 36q18 0 79 -21q44 -16 64 -16q23 0 27 37l86 -9q-2 -63 -33.5 -100t-80.5 -37q-25 0 -79 20z" />
    <glyph glyph-name="odieresis" unicode="&#xf6;" horiz-adv-x="640" 
d="M34 270q0 122 82.5 202.5t204.5 80.5q121 0 203.5 -80.5t82.5 -202.5q0 -117 -83 -199.5t-203 -82.5q-122 0 -204.5 80t-82.5 202zM181 270q0 -62 39.5 -104t99.5 -42q59 0 99.5 43.5t40.5 102.5q0 63 -40 105t-100 42t-99.5 -42t-39.5 -105zM153 652q0 34 20 54t54 20
q33 0 53 -20t20 -54q0 -33 -20 -53t-53 -20q-34 0 -54 20t-20 53zM336 652q0 34 20 54t54 20q33 0 53 -20t20 -54q0 -33 -20 -53t-53 -20q-34 0 -54 20t-20 53z" />
    <glyph glyph-name="divide" unicode="&#xf7;" 
d="M57 419h450v-118h-450v118zM221 184q0 28 17 45t44 17q28 0 45 -17t17 -45q0 -27 -17 -44t-45 -17q-27 0 -44 17t-17 44zM221 535q0 28 17 45t44 17q28 0 45 -17t17 -45q0 -27 -17 -44t-45 -17q-27 0 -44 17t-17 44z" />
    <glyph glyph-name="oslash" unicode="&#xf8;" horiz-adv-x="646" 
d="M12 16l82 81q-57 74 -57 173q0 122 82.5 202.5t204.5 80.5q98 0 173 -55l85 84l52 -52l-84 -84q60 -74 60 -176q0 -117 -83 -199.5t-203 -82.5q-101 0 -176 56l-82 -82zM463 270q0 35 -17 72l-197 -197q31 -21 74 -21q59 0 99.5 43.5t40.5 102.5zM184 270q0 -39 15 -69
l198 196q-37 20 -74 20q-60 0 -99.5 -42t-39.5 -105z" />
    <glyph glyph-name="ugrave" unicode="&#xf9;" horiz-adv-x="591" 
d="M204 541v-302q0 -39 4 -59q12 -57 77 -57q74 0 90 66q6 24 6 61v291h146v-541h-146v88q-58 -100 -147 -100q-68 0 -109.5 34.5t-56.5 89.5q-10 36 -10 121v308h146zM303 720l60 -141h-115l-104 141h159z" />
    <glyph glyph-name="uacute" unicode="&#xfa;" horiz-adv-x="591" 
d="M204 541v-302q0 -39 4 -59q12 -57 77 -57q74 0 90 66q6 24 6 61v291h146v-541h-146v88q-58 -100 -147 -100q-68 0 -109.5 34.5t-56.5 89.5q-10 36 -10 121v308h146zM224 579l60 141h159l-104 -141h-115z" />
    <glyph glyph-name="ucircumflex" unicode="&#xfb;" horiz-adv-x="591" 
d="M204 541v-302q0 -39 4 -59q12 -57 77 -57q74 0 90 66q6 24 6 61v291h146v-541h-146v88q-58 -100 -147 -100q-68 0 -109.5 34.5t-56.5 89.5q-10 36 -10 121v308h146zM363 720l118 -141h-139l-49 51l-48 -51h-140l117 141h141z" />
    <glyph glyph-name="udieresis" unicode="&#xfc;" horiz-adv-x="591" 
d="M204 541v-302q0 -39 4 -59q12 -57 77 -57q74 0 90 66q6 24 6 61v291h146v-541h-146v88q-58 -100 -147 -100q-68 0 -109.5 34.5t-56.5 89.5q-10 36 -10 121v308h146zM128 652q0 34 20 54t54 20q33 0 53 -20t20 -54q0 -33 -20 -53t-53 -20q-34 0 -54 20t-20 53zM311 652
q0 34 20 54t54 20q33 0 53 -20t20 -54q0 -33 -20 -53t-53 -20q-34 0 -54 20t-20 53z" />
    <glyph glyph-name="yacute" unicode="&#xfd;" horiz-adv-x="574" 
d="M413 541h163l-298 -710h-163l92 198l-209 512h166l126 -326zM218 579l60 141h159l-104 -141h-115z" />
    <glyph glyph-name="thorn" unicode="&#xfe;" horiz-adv-x="649" 
d="M464 270q0 65 -36 108.5t-94 43.5t-93.5 -40.5t-35.5 -111.5q0 -68 36.5 -110t93.5 -42q59 0 94 42t35 110zM616 270q0 -126 -72.5 -204t-173.5 -78q-95 0 -160 74v-231h-146v889h146v-259q24 38 68.5 65t99.5 27q100 0 169 -79.5t69 -203.5z" />
    <glyph glyph-name="ydieresis" unicode="&#xff;" horiz-adv-x="574" 
d="M413 541h163l-298 -710h-163l92 198l-209 512h166l126 -326zM122 652q0 34 20 54t54 20q33 0 53 -20t20 -54q0 -33 -20 -53t-53 -20q-34 0 -54 20t-20 53zM305 652q0 34 20 54t54 20q33 0 53 -20t20 -54q0 -33 -20 -53t-53 -20q-34 0 -54 20t-20 53z" />
    <glyph glyph-name="Amacron" unicode="&#x100;" horiz-adv-x="722" 
d="M161 0h-155l280 720h153l277 -720h-164l-50 135h-291zM357 520l-90 -247h181zM202 787v96h304v-96h-304z" />
    <glyph glyph-name="amacron" unicode="&#x101;" horiz-adv-x="560" 
d="M354 223v29q-11 -11 -50 -22l-53 -14q-42 -11 -58 -27.5t-16 -38.5q0 -23 17.5 -37.5t47.5 -14.5q48 0 80 32t32 93zM280 553q144 0 196 -99q24 -46 24 -117v-191q0 -31 28 -31q5 0 19 4v-122q-16 -9 -47 -9q-101 0 -139 88q-58 -88 -160 -88q-72 0 -120.5 41t-48.5 110
q0 70 45.5 107.5t138.5 55.5l102 20q36 6 36 37q0 28 -22 46t-59 18q-68 0 -81 -63l-146 7q7 81 69.5 133.5t164.5 52.5zM128 624v96h304v-96h-304z" />
    <glyph glyph-name="Abreve" unicode="&#x102;" horiz-adv-x="722" 
d="M161 0h-155l280 720h153l277 -720h-164l-50 135h-291zM357 520l-90 -247h181zM433 888h77q-4 -60 -45 -96t-111 -36t-110.5 36t-45.5 96h75q21 -36 81 -36q59 0 79 36z" />
    <glyph glyph-name="abreve" unicode="&#x103;" horiz-adv-x="560" 
d="M354 223v29q-11 -11 -50 -22l-53 -14q-42 -11 -58 -27.5t-16 -38.5q0 -23 17.5 -37.5t47.5 -14.5q48 0 80 32t32 93zM280 553q144 0 196 -99q24 -46 24 -117v-191q0 -31 28 -31q5 0 19 4v-122q-16 -9 -47 -9q-101 0 -139 88q-58 -88 -160 -88q-72 0 -120.5 41t-48.5 110
q0 70 45.5 107.5t138.5 55.5l102 20q36 6 36 37q0 28 -22 46t-59 18q-68 0 -81 -63l-146 7q7 81 69.5 133.5t164.5 52.5zM360 720h81q-4 -66 -46.5 -103.5t-114.5 -37.5t-113.5 37.5t-46.5 103.5h80q20 -45 80 -45q57 0 80 45z" />
    <glyph glyph-name="Aogonek" unicode="&#x104;" horiz-adv-x="722" 
d="M657 0h-105l-50 135h-291l-50 -135h-155l280 720h153l277 -720q-63 -37 -63 -76q0 -31 37 -31q24 0 48 21l28 -51q-33 -44 -94 -44q-42 0 -71 21t-29 57q0 63 85 103zM357 520l-90 -247h181z" />
    <glyph glyph-name="aogonek" unicode="&#x105;" horiz-adv-x="560" 
d="M280 553q144 0 196 -99q24 -46 24 -117v-191q0 -31 28 -31q5 0 19 4v-122q-16 -9 -48 -9q-44 -32 -44 -64q0 -31 37 -31q24 0 48 21l28 -51q-33 -44 -94 -44q-42 0 -71 21t-29 57q0 60 74 98q-61 18 -87 81q-58 -88 -160 -88q-72 0 -120.5 41t-48.5 110q0 70 45.5 107.5
t138.5 55.5l102 20q36 6 36 37q0 28 -22 46t-59 18q-68 0 -81 -63l-146 7q7 81 69.5 133.5t164.5 52.5zM354 223v29q-11 -11 -50 -22l-53 -14q-42 -11 -58 -27.5t-16 -38.5q0 -23 17.5 -37.5t47.5 -14.5q48 0 80 32t32 93z" />
    <glyph glyph-name="Cacute" unicode="&#x106;" horiz-adv-x="758" 
d="M411 -12q-159 0 -267 106t-108 266t108.5 266t266.5 106q232 0 319 -190l-141 -77q-65 118 -178 118q-90 0 -150 -64.5t-60 -158.5q0 -95 60 -159t150 -64q128 0 183 129l146 -57q-32 -103 -116.5 -162t-212.5 -59zM339 758l50 124h169l-104 -124h-115z" />
    <glyph glyph-name="cacute" unicode="&#x107;" horiz-adv-x="584" 
d="M318 -12q-122 0 -203 80t-81 202t82.5 202.5t201.5 80.5q171 0 241 -146l-123 -68q-45 78 -117 78q-61 0 -99.5 -41.5t-38.5 -105.5q0 -62 38.5 -104t99.5 -42q82 0 117 87l133 -49q-25 -82 -88 -128t-163 -46zM251 579l60 141h159l-104 -141h-115z" />
    <glyph glyph-name="Ccircumflex" unicode="&#x108;" horiz-adv-x="758" 
d="M411 -12q-159 0 -267 106t-108 266t108.5 266t266.5 106q232 0 319 -190l-141 -77q-65 118 -178 118q-90 0 -150 -64.5t-60 -158.5q0 -95 60 -159t150 -64q128 0 183 129l146 -57q-32 -103 -116.5 -162t-212.5 -59zM487 882l122 -125h-150l-48 46l-48 -46h-150l121 125
h153z" />
    <glyph glyph-name="ccircumflex" unicode="&#x109;" horiz-adv-x="584" 
d="M318 -12q-122 0 -203 80t-81 202t82.5 202.5t201.5 80.5q171 0 241 -146l-123 -68q-45 78 -117 78q-61 0 -99.5 -41.5t-38.5 -105.5q0 -62 38.5 -104t99.5 -42q82 0 117 87l133 -49q-25 -82 -88 -128t-163 -46zM389 720l118 -141h-139l-49 51l-48 -51h-140l117 141h141z
" />
    <glyph glyph-name="Cdotaccent" unicode="&#x10a;" horiz-adv-x="758" 
d="M411 -12q-159 0 -267 106t-108 266t108.5 266t266.5 106q232 0 319 -190l-141 -77q-65 118 -178 118q-90 0 -150 -64.5t-60 -158.5q0 -95 60 -159t150 -64q128 0 183 129l146 -57q-32 -103 -116.5 -162t-212.5 -59zM318 830q0 36 26.5 54.5t66.5 18.5t66.5 -18.5
t26.5 -54.5t-26.5 -54t-66.5 -18t-66.5 18t-26.5 54z" />
    <glyph glyph-name="cdotaccent" unicode="&#x10b;" horiz-adv-x="584" 
d="M318 -12q-122 0 -203 80t-81 202t82.5 202.5t201.5 80.5q171 0 241 -146l-123 -68q-45 78 -117 78q-61 0 -99.5 -41.5t-38.5 -105.5q0 -62 38.5 -104t99.5 -42q82 0 117 87l133 -49q-25 -82 -88 -128t-163 -46zM231 652q0 37 24.5 57.5t63.5 20.5t63.5 -20.5t24.5 -57.5
t-24.5 -57.5t-63.5 -20.5t-63.5 20.5t-24.5 57.5z" />
    <glyph glyph-name="Ccaron" unicode="&#x10c;" horiz-adv-x="758" 
d="M411 -12q-159 0 -267 106t-108 266t108.5 266t266.5 106q232 0 319 -190l-141 -77q-65 118 -178 118q-90 0 -150 -64.5t-60 -158.5q0 -95 60 -159t150 -64q128 0 183 129l146 -57q-32 -103 -116.5 -162t-212.5 -59zM609 882l-122 -125h-153l-121 125h150l48 -46l48 46
h150z" />
    <glyph glyph-name="ccaron" unicode="&#x10d;" horiz-adv-x="584" 
d="M318 -12q-122 0 -203 80t-81 202t82.5 202.5t201.5 80.5q171 0 241 -146l-123 -68q-45 78 -117 78q-61 0 -99.5 -41.5t-38.5 -105.5q0 -62 38.5 -104t99.5 -42q82 0 117 87l133 -49q-25 -82 -88 -128t-163 -46zM507 720l-118 -141h-141l-117 141h140l48 -51l49 51h139z
" />
    <glyph glyph-name="Dcaron" unicode="&#x10e;" horiz-adv-x="711" 
d="M68 0v720h245q163 0 262.5 -98t99.5 -262q0 -157 -101.5 -258.5t-266.5 -101.5h-239zM221 579v-438h78q98 0 156.5 61t58.5 158q0 100 -57 159.5t-152 59.5h-84zM514 882l-122 -125h-153l-121 125h150l48 -46l48 46h150z" />
    <glyph glyph-name="dcaron" unicode="&#x10f;" horiz-adv-x="649" 
d="M185 272q0 -63 37 -107.5t94 -44.5q58 0 93 39t35 113q0 65 -37 108t-93 43q-60 0 -94.5 -40.5t-34.5 -110.5zM34 272q0 124 71 202.5t174 78.5q106 0 160 -83v250h146v-720h-146v70q-59 -82 -167 -82q-99 0 -168.5 79.5t-69.5 204.5zM633 554l-2 166h133l-59 -166h-72z
" />
    <glyph glyph-name="Dcroat" unicode="&#x110;" horiz-adv-x="743" 
d="M7 322v75h93v323h245q163 0 262.5 -98t99.5 -262q0 -157 -101.5 -258.5t-266.5 -101.5h-239v322h-93zM253 579v-182h185v-75h-185v-181h78q98 0 156.5 61t58.5 158q0 100 -57 159.5t-152 59.5h-84z" />
    <glyph glyph-name="dcroat" unicode="&#x111;" horiz-adv-x="655" 
d="M250 665h194v55h146v-55h93v-75h-93v-590h-146v70q-59 -82 -167 -82q-99 0 -168.5 79.5t-69.5 204.5q0 124 71 202.5t174 78.5q106 0 160 -83v120h-194v75zM190 272q0 -63 37 -107.5t94 -44.5q58 0 93 39t35 113q0 65 -37 108t-93 43q-60 0 -94.5 -40.5t-34.5 -110.5z
" />
    <glyph glyph-name="Emacron" unicode="&#x112;" horiz-adv-x="552" 
d="M68 0v720h431v-141h-278v-132h267v-141h-267v-165h289v-141h-442zM129 787v96h304v-96h-304z" />
    <glyph glyph-name="emacron" unicode="&#x113;" horiz-adv-x="598" 
d="M185 319h230q-19 101 -116 101q-41 0 -73.5 -26.5t-40.5 -74.5zM561 226h-378q6 -45 42.5 -75t85.5 -30q64 0 97 48l142 -15q-21 -77 -84 -121.5t-155 -44.5q-124 0 -199 77t-75 205q0 124 78 203.5t186 79.5q120 0 191.5 -79.5t71.5 -201.5q0 -26 -3 -46zM155 624v96
h304v-96h-304z" />
    <glyph glyph-name="Ebreve" unicode="&#x114;" horiz-adv-x="552" 
d="M68 0v720h431v-141h-278v-132h267v-141h-267v-165h289v-141h-442zM360 888h77q-4 -60 -45 -96t-111 -36t-110.5 36t-45.5 96h75q21 -36 81 -36q59 0 79 36z" />
    <glyph glyph-name="ebreve" unicode="&#x115;" horiz-adv-x="598" 
d="M185 319h230q-19 101 -116 101q-41 0 -73.5 -26.5t-40.5 -74.5zM561 226h-378q6 -45 42.5 -75t85.5 -30q64 0 97 48l142 -15q-21 -77 -84 -121.5t-155 -44.5q-124 0 -199 77t-75 205q0 124 78 203.5t186 79.5q120 0 191.5 -79.5t71.5 -201.5q0 -26 -3 -46zM388 720h81
q-4 -66 -46.5 -103.5t-114.5 -37.5t-113.5 37.5t-46.5 103.5h80q20 -45 80 -45q57 0 80 45z" />
    <glyph glyph-name="Edotaccent" unicode="&#x116;" horiz-adv-x="552" 
d="M68 0v720h431v-141h-278v-132h267v-141h-267v-165h289v-141h-442zM188 830q0 36 26.5 54.5t66.5 18.5t66.5 -18.5t26.5 -54.5t-26.5 -54t-66.5 -18t-66.5 18t-26.5 54z" />
    <glyph glyph-name="edotaccent" unicode="&#x117;" horiz-adv-x="598" 
d="M185 319h230q-19 101 -116 101q-41 0 -73.5 -26.5t-40.5 -74.5zM561 226h-378q6 -45 42.5 -75t85.5 -30q64 0 97 48l142 -15q-21 -77 -84 -121.5t-155 -44.5q-124 0 -199 77t-75 205q0 124 78 203.5t186 79.5q120 0 191.5 -79.5t71.5 -201.5q0 -26 -3 -46zM219 652
q0 37 24.5 57.5t63.5 20.5t63.5 -20.5t24.5 -57.5t-24.5 -57.5t-63.5 -20.5t-63.5 20.5t-24.5 57.5z" />
    <glyph glyph-name="Eogonek" unicode="&#x118;" horiz-adv-x="552" 
d="M68 0v720h431v-141h-278v-132h267v-141h-267v-165h289v-141q-63 -37 -63 -76q0 -31 37 -31q24 0 48 21l28 -51q-33 -44 -94 -44q-42 0 -71 21t-29 57q0 63 85 103h-383z" />
    <glyph glyph-name="eogonek" unicode="&#x119;" horiz-adv-x="598" 
d="M561 226h-378q6 -45 42.5 -75t85.5 -30q64 0 97 48l142 -15q-19 -68 -70.5 -111t-126.5 -52q-48 -33 -48 -67q0 -31 37 -31q24 0 48 21l28 -51q-33 -44 -94 -44q-42 0 -71 21t-29 57q0 57 63 92q-114 8 -182 83.5t-68 197.5q0 124 78 203.5t186 79.5q120 0 191.5 -79.5
t71.5 -201.5q0 -26 -3 -46zM185 319h230q-19 101 -116 101q-41 0 -73.5 -26.5t-40.5 -74.5z" />
    <glyph glyph-name="Ecaron" unicode="&#x11a;" horiz-adv-x="552" 
d="M68 0v720h431v-141h-278v-132h267v-141h-267v-165h289v-141h-442zM479 882l-122 -125h-153l-121 125h150l48 -46l48 46h150z" />
    <glyph glyph-name="ecaron" unicode="&#x11b;" horiz-adv-x="598" 
d="M185 319h230q-19 101 -116 101q-41 0 -73.5 -26.5t-40.5 -74.5zM561 226h-378q6 -45 42.5 -75t85.5 -30q64 0 97 48l142 -15q-21 -77 -84 -121.5t-155 -44.5q-124 0 -199 77t-75 205q0 124 78 203.5t186 79.5q120 0 191.5 -79.5t71.5 -201.5q0 -26 -3 -46zM495 720
l-118 -141h-141l-117 141h140l48 -51l49 51h139z" />
    <glyph glyph-name="Gcircumflex" unicode="&#x11c;" horiz-adv-x="787" 
d="M411 732q113 0 185.5 -41t117.5 -121l-136 -84q-63 97 -167 97q-90 0 -150 -64.5t-60 -158.5q0 -96 60 -159.5t155 -63.5q69 0 114 35.5t63 86.5h-219v140h365v-399h-142v89q-76 -101 -205 -101q-143 0 -249.5 107t-106.5 265q0 160 108.5 266t266.5 106zM489 882
l122 -125h-150l-48 46l-48 -46h-150l121 125h153z" />
    <glyph glyph-name="gcircumflex" unicode="&#x11d;" horiz-adv-x="633" 
d="M569 541v-452q0 -122 -71.5 -195.5t-193.5 -73.5q-115 0 -181 53t-79 127l144 17q23 -68 118 -68q58 0 87.5 36.5t29.5 101.5v33q-55 -78 -149 -78q-101 0 -170 72.5t-69 184.5t69.5 183t168.5 71q92 0 150 -81v69h146zM186 297q0 -51 34 -87.5t88 -36.5q55 0 88 32
t33 92q0 55 -33.5 90.5t-87.5 35.5q-57 0 -89.5 -33.5t-32.5 -92.5zM395 720l118 -141h-139l-49 51l-48 -51h-140l117 141h141z" />
    <glyph glyph-name="Gbreve" unicode="&#x11e;" horiz-adv-x="787" 
d="M411 732q113 0 185.5 -41t117.5 -121l-136 -84q-63 97 -167 97q-90 0 -150 -64.5t-60 -158.5q0 -96 60 -159.5t155 -63.5q69 0 114 35.5t63 86.5h-219v140h365v-399h-142v89q-76 -101 -205 -101q-143 0 -249.5 107t-106.5 265q0 160 108.5 266t266.5 106zM492 888h77
q-4 -60 -45 -96t-111 -36t-110.5 36t-45.5 96h75q21 -36 81 -36q59 0 79 36z" />
    <glyph glyph-name="gbreve" unicode="&#x11f;" horiz-adv-x="633" 
d="M569 541v-452q0 -122 -71.5 -195.5t-193.5 -73.5q-115 0 -181 53t-79 127l144 17q23 -68 118 -68q58 0 87.5 36.5t29.5 101.5v33q-55 -78 -149 -78q-101 0 -170 72.5t-69 184.5t69.5 183t168.5 71q92 0 150 -81v69h146zM186 297q0 -51 34 -87.5t88 -36.5q55 0 88 32
t33 92q0 55 -33.5 90.5t-87.5 35.5q-57 0 -89.5 -33.5t-32.5 -92.5zM405 720h81q-4 -66 -46.5 -103.5t-114.5 -37.5t-113.5 37.5t-46.5 103.5h80q20 -45 80 -45q57 0 80 45z" />
    <glyph glyph-name="Gdotaccent" unicode="&#x120;" horiz-adv-x="787" 
d="M411 732q113 0 185.5 -41t117.5 -121l-136 -84q-63 97 -167 97q-90 0 -150 -64.5t-60 -158.5q0 -96 60 -159.5t155 -63.5q69 0 114 35.5t63 86.5h-219v140h365v-399h-142v89q-76 -101 -205 -101q-143 0 -249.5 107t-106.5 265q0 160 108.5 266t266.5 106zM322 830
q0 36 26.5 54.5t66.5 18.5t66.5 -18.5t26.5 -54.5t-26.5 -54t-66.5 -18t-66.5 18t-26.5 54z" />
    <glyph glyph-name="gdotaccent" unicode="&#x121;" horiz-adv-x="633" 
d="M569 541v-452q0 -122 -71.5 -195.5t-193.5 -73.5q-115 0 -181 53t-79 127l144 17q23 -68 118 -68q58 0 87.5 36.5t29.5 101.5v33q-55 -78 -149 -78q-101 0 -170 72.5t-69 184.5t69.5 183t168.5 71q92 0 150 -81v69h146zM186 297q0 -51 34 -87.5t88 -36.5q55 0 88 32
t33 92q0 55 -33.5 90.5t-87.5 35.5q-57 0 -89.5 -33.5t-32.5 -92.5zM237 652q0 37 24.5 57.5t63.5 20.5t63.5 -20.5t24.5 -57.5t-24.5 -57.5t-63.5 -20.5t-63.5 20.5t-24.5 57.5z" />
    <glyph glyph-name="Gcommaaccent" unicode="&#x122;" horiz-adv-x="787" 
d="M411 732q113 0 185.5 -41t117.5 -121l-136 -84q-63 97 -167 97q-90 0 -150 -64.5t-60 -158.5q0 -96 60 -159.5t155 -63.5q69 0 114 35.5t63 86.5h-219v140h365v-399h-142v89q-76 -101 -205 -101q-143 0 -249.5 107t-106.5 265q0 160 108.5 266t266.5 106zM337 -191
l-2 156h133l-59 -156h-72z" />
    <glyph glyph-name="gcommaaccent" unicode="&#x123;" horiz-adv-x="633" 
d="M569 541v-452q0 -122 -71.5 -195.5t-193.5 -73.5q-115 0 -181 53t-79 127l144 17q23 -68 118 -68q58 0 87.5 36.5t29.5 101.5v33q-55 -78 -149 -78q-101 0 -170 72.5t-69 184.5t69.5 183t168.5 71q92 0 150 -81v69h146zM186 297q0 -51 34 -87.5t88 -36.5q55 0 88 32
t33 92q0 55 -33.5 90.5t-87.5 35.5q-57 0 -89.5 -33.5t-32.5 -92.5zM273 584l-2 166h133l-59 -166h-72z" />
    <glyph glyph-name="Hcircumflex" unicode="&#x124;" horiz-adv-x="724" 
d="M503 0v306h-282v-306h-153v720h153v-273h282v273h153v-720h-153zM438 882l122 -125h-150l-48 46l-48 -46h-150l121 125h153z" />
    <glyph glyph-name="hcircumflex" unicode="&#x125;" horiz-adv-x="591" 
d="M210 0h-146v720h146v-266q53 99 155 99q63 0 104.5 -33t55.5 -86q8 -32 8 -98v-336h-146v298q0 43 -3 57q-11 64 -78 64q-69 0 -89 -66q-7 -21 -7 -62v-291zM212 882l122 -125h-150l-48 46l-48 -46h-150l121 125h153z" />
    <glyph glyph-name="Hbar" unicode="&#x126;" horiz-adv-x="794" 
d="M10 541v75h92v104h153v-104h282v104h153v-104h94v-75h-94v-541h-153v306h-282v-306h-153v541h-92zM255 447h282v94h-282v-94z" />
    <glyph glyph-name="hbar" unicode="&#x127;" horiz-adv-x="591" 
d="M210 590v-136q53 99 155 99q63 0 104.5 -33t55.5 -86q8 -32 8 -98v-336h-146v298q0 43 -3 57q-11 64 -78 64q-69 0 -89 -66q-7 -21 -7 -62v-291h-146v590h-93v75h93v55h146v-55h194v-75h-194z" />
    <glyph glyph-name="Itilde" unicode="&#x128;" horiz-adv-x="289" 
d="M221 720v-720h-153v720h153zM136 771q-47 17 -64 17q-23 0 -26 -38l-87 13q2 62 33.5 98t80.5 36q18 0 79 -21q44 -16 64 -16q23 0 27 37l86 -9q-2 -63 -33.5 -100t-80.5 -37q-25 0 -79 20z" />
    <glyph glyph-name="itilde" unicode="&#x129;" horiz-adv-x="280" 
d="M132 596q-47 17 -64 17q-23 0 -26 -38l-87 13q2 62 33.5 98t80.5 36q18 0 79 -21q44 -16 64 -16q23 0 27 37l86 -9q-2 -63 -33.5 -100t-80.5 -37q-25 0 -79 20zM213 541v-541h-146v541h146z" />
    <glyph glyph-name="Imacron" unicode="&#x12a;" horiz-adv-x="289" 
d="M221 720v-720h-153v720h153zM-8 787v96h304v-96h-304z" />
    <glyph glyph-name="imacron" unicode="&#x12b;" horiz-adv-x="280" 
d="M-12 624v96h304v-96h-304zM213 541v-541h-146v541h146z" />
    <glyph glyph-name="Ibreve" unicode="&#x12c;" horiz-adv-x="289" 
d="M221 720v-720h-153v720h153zM223 888h77q-4 -60 -45 -96t-111 -36t-110.5 36t-45.5 96h75q21 -36 81 -36q59 0 79 36z" />
    <glyph glyph-name="ibreve" unicode="&#x12d;" horiz-adv-x="280" 
d="M220 720h81q-4 -66 -46.5 -103.5t-114.5 -37.5t-113.5 37.5t-46.5 103.5h80q20 -45 80 -45q57 0 80 45zM213 541v-541h-146v541h146z" />
    <glyph glyph-name="Iogonek" unicode="&#x12e;" horiz-adv-x="289" 
d="M162 0h-94v720h153v-720q-63 -37 -63 -76q0 -31 37 -31q23 0 48 21l28 -51q-33 -44 -94 -44q-42 0 -71 21t-29 57q0 63 85 103z" />
    <glyph glyph-name="iogonek" unicode="&#x12f;" horiz-adv-x="274" 
d="M151 0h-87v541h146v-541q-63 -37 -63 -76q0 -31 37 -31q23 0 48 21l28 -51q-33 -44 -94 -44q-42 0 -71 21t-29 57q0 63 85 103zM49 652q0 37 24.5 57.5t63.5 20.5t63.5 -20.5t24.5 -57.5t-24.5 -57.5t-63.5 -20.5t-63.5 20.5t-24.5 57.5z" />
    <glyph glyph-name="Idotaccent" unicode="&#x130;" horiz-adv-x="289" 
d="M221 720v-720h-153v720h153zM51 830q0 36 26.5 54.5t66.5 18.5t66.5 -18.5t26.5 -54.5t-26.5 -54t-66.5 -18t-66.5 18t-26.5 54z" />
    <glyph glyph-name="dotlessi" unicode="&#x131;" horiz-adv-x="274" 
d="M210 541v-541h-146v541h146z" />
    <glyph glyph-name="IJ" unicode="&#x132;" horiz-adv-x="678" 
d="M221 720v-720h-153v720h153zM383 138q82 0 82 88v494h153v-514q0 -99 -58 -158.5t-163 -59.5q-47 0 -86 11l11 146q31 -7 61 -7z" />
    <glyph glyph-name="ij" unicode="&#x133;" horiz-adv-x="548" 
d="M210 541v-541h-146v541h146zM49 652q0 37 24.5 57.5t63.5 20.5t63.5 -20.5t24.5 -57.5t-24.5 -57.5t-63.5 -20.5t-63.5 20.5t-24.5 57.5zM484 541v-690l-146 -20v710h146zM323 652q0 37 24.5 57.5t63.5 20.5t63.5 -20.5t24.5 -57.5t-24.5 -57.5t-63.5 -20.5t-63.5 20.5
t-24.5 57.5z" />
    <glyph glyph-name="Jcircumflex" unicode="&#x134;" horiz-adv-x="391" 
d="M96 138q82 0 82 88v494h153v-514q0 -99 -58 -158.5t-163 -59.5q-47 0 -86 11l11 146q31 -7 61 -7zM331 882l122 -125h-150l-48 46l-48 -46h-150l121 125h153z" />
    <glyph glyph-name="jcircumflex" unicode="&#x135;" horiz-adv-x="274" 
d="M210 541v-690l-146 -20v710h146zM207 720l118 -141h-139l-49 51l-48 -51h-140l117 141h141z" />
    <glyph glyph-name="Kcommaaccent" unicode="&#x136;" horiz-adv-x="689" 
d="M683 0h-202l-180 302l-80 -97v-205h-153v720h153v-298l230 298h204l-246 -292zM277 -191l-2 156h133l-59 -156h-72z" />
    <glyph glyph-name="kcommaaccent" unicode="&#x137;" horiz-adv-x="571" 
d="M574 0h-193l-112 190l-59 -72v-118h-146v720h146v-398l154 219h191l-185 -231zM234 -191l-2 156h133l-59 -156h-72z" />
    <glyph glyph-name="kgreenlandic" unicode="&#x138;" horiz-adv-x="577" 
d="M577 0h-193l-112 190l-59 -72v-118h-146v541h146v-219l150 219h195l-185 -231z" />
    <glyph glyph-name="Lacute" unicode="&#x139;" horiz-adv-x="514" 
d="M68 0v720h153v-579h269v-141h-422zM79 758l50 124h169l-104 -124h-115z" />
    <glyph glyph-name="lacute" unicode="&#x13a;" horiz-adv-x="274" 
d="M210 720v-720h-146v720h146zM64 758l50 124h169l-104 -124h-115z" />
    <glyph glyph-name="Lcommaaccent" unicode="&#x13b;" horiz-adv-x="514" 
d="M68 0v720h153v-579h269v-141h-422zM212 -191l-2 156h133l-59 -156h-72z" />
    <glyph glyph-name="lcommaaccent" unicode="&#x13c;" horiz-adv-x="274" 
d="M210 720v-720h-146v720h146zM70 -191l-2 156h133l-59 -156h-72z" />
    <glyph glyph-name="Lcaron" unicode="&#x13d;" horiz-adv-x="514" 
d="M68 0v720h153v-579h269v-141h-422zM270 554l-2 166h133l-59 -166h-72z" />
    <glyph glyph-name="lcaron" unicode="&#x13e;" horiz-adv-x="274" 
d="M210 720v-720h-146v720h146zM261 554l-2 166h133l-59 -166h-72z" />
    <glyph glyph-name="Ldot" unicode="&#x13f;" horiz-adv-x="514" 
d="M68 0v720h153v-579h269v-141h-422zM306 385q0 37 24.5 57.5t63.5 20.5t63.5 -20.5t24.5 -57.5t-24.5 -57.5t-63.5 -20.5t-63.5 20.5t-24.5 57.5z" />
    <glyph glyph-name="ldot" unicode="&#x140;" horiz-adv-x="450" 
d="M210 720v-720h-146v720h146zM274 274q0 37 24.5 57.5t63.5 20.5t63.5 -20.5t24.5 -57.5t-24.5 -57.5t-63.5 -20.5t-63.5 20.5t-24.5 57.5z" />
    <glyph glyph-name="Lslash" unicode="&#x141;" horiz-adv-x="552" 
d="M-15 266l118 69v385h153v-299l148 88l38 -67l-186 -108v-193h269v-141h-422v248l-80 -47z" />
    <glyph glyph-name="lslash" unicode="&#x142;" horiz-adv-x="372" 
d="M254 419l95 54l38 -65l-133 -76v-332h-146v251l-85 -50l-38 65l123 72v382h146v-301z" />
    <glyph glyph-name="Nacute" unicode="&#x143;" horiz-adv-x="725" 
d="M495 0l-284 449v-449h-143v720h152l294 -460v460h143v-720h-162zM306 758l50 124h169l-104 -124h-115z" />
    <glyph glyph-name="nacute" unicode="&#x144;" horiz-adv-x="591" 
d="M387 0v298q0 43 -3 57q-11 64 -78 64q-69 0 -89 -66q-7 -21 -7 -62v-291h-146v541h146v-87q53 99 155 99q63 0 104.5 -33t55.5 -86q8 -32 8 -98v-336h-146zM234 579l60 141h159l-104 -141h-115z" />
    <glyph glyph-name="Ncommaaccent" unicode="&#x145;" horiz-adv-x="725" 
d="M495 0l-284 449v-449h-143v720h152l294 -460v460h143v-720h-162zM301 -191l-2 156h133l-59 -156h-72z" />
    <glyph glyph-name="ncommaaccent" unicode="&#x146;" horiz-adv-x="591" 
d="M387 0v298q0 43 -3 57q-11 64 -78 64q-69 0 -89 -66q-7 -21 -7 -62v-291h-146v541h146v-87q53 99 155 99q63 0 104.5 -33t55.5 -86q8 -32 8 -98v-336h-146zM237 -191l-2 156h133l-59 -156h-72z" />
    <glyph glyph-name="Ncaron" unicode="&#x147;" horiz-adv-x="725" 
d="M495 0l-284 449v-449h-143v720h152l294 -460v460h143v-720h-162zM570 882l-122 -125h-153l-121 125h150l48 -46l48 46h150z" />
    <glyph glyph-name="ncaron" unicode="&#x148;" horiz-adv-x="591" 
d="M387 0v298q0 43 -3 57q-11 64 -78 64q-69 0 -89 -66q-7 -21 -7 -62v-291h-146v541h146v-87q53 99 155 99q63 0 104.5 -33t55.5 -86q8 -32 8 -98v-336h-146zM491 720l-118 -141h-141l-117 141h140l48 -51l49 51h139z" />
    <glyph glyph-name="napostrophe" unicode="&#x149;" horiz-adv-x="591" 
d="M387 0v298q0 43 -3 57q-11 64 -78 64q-69 0 -89 -66q-7 -21 -7 -62v-291h-146v541h146v-87q53 99 155 99q63 0 104.5 -33t55.5 -86q8 -32 8 -98v-336h-146zM64 564l-2 166h133l-59 -166h-72z" />
    <glyph glyph-name="Eng" unicode="&#x14a;" horiz-adv-x="725" 
d="M422 -19q92 0 92 94v4l-303 385v-464h-143v720h139l307 -385v385h143v-669q0 -99 -58.5 -159.5t-162.5 -60.5q-44 0 -86 12l11 144q27 -6 61 -6z" />
    <glyph glyph-name="eng" unicode="&#x14b;" horiz-adv-x="591" 
d="M387 -169v467q0 43 -3 57q-11 64 -78 64q-69 0 -89 -66q-7 -21 -7 -62v-291h-146v541h146v-87q53 99 155 99q63 0 104.5 -33t55.5 -86q8 -32 8 -98v-485z" />
    <glyph glyph-name="Omacron" unicode="&#x14c;" horiz-adv-x="822" 
d="M36 360q0 160 107.5 266t267.5 106t267.5 -106t107.5 -266q0 -154 -108.5 -263t-266.5 -109q-160 0 -267.5 106t-107.5 266zM200 360q0 -95 60.5 -159t150.5 -64q89 0 150 66t61 157q0 95 -60.5 159t-150.5 64t-150.5 -64.5t-60.5 -158.5zM259 787v96h304v-96h-304z" />
    <glyph glyph-name="omacron" unicode="&#x14d;" horiz-adv-x="640" 
d="M34 270q0 122 82.5 202.5t204.5 80.5q121 0 203.5 -80.5t82.5 -202.5q0 -117 -83 -199.5t-203 -82.5q-122 0 -204.5 80t-82.5 202zM181 270q0 -62 39.5 -104t99.5 -42q59 0 99.5 43.5t40.5 102.5q0 63 -40 105t-100 42t-99.5 -42t-39.5 -105zM166 624v96h304v-96h-304z
" />
    <glyph glyph-name="Obreve" unicode="&#x14e;" horiz-adv-x="822" 
d="M36 360q0 160 107.5 266t267.5 106t267.5 -106t107.5 -266q0 -154 -108.5 -263t-266.5 -109q-160 0 -267.5 106t-107.5 266zM200 360q0 -95 60.5 -159t150.5 -64q89 0 150 66t61 157q0 95 -60.5 159t-150.5 64t-150.5 -64.5t-60.5 -158.5zM490 888h77q-4 -60 -45 -96
t-111 -36t-110.5 36t-45.5 96h75q21 -36 81 -36q59 0 79 36z" />
    <glyph glyph-name="obreve" unicode="&#x14f;" horiz-adv-x="640" 
d="M34 270q0 122 82.5 202.5t204.5 80.5q121 0 203.5 -80.5t82.5 -202.5q0 -117 -83 -199.5t-203 -82.5q-122 0 -204.5 80t-82.5 202zM181 270q0 -62 39.5 -104t99.5 -42q59 0 99.5 43.5t40.5 102.5q0 63 -40 105t-100 42t-99.5 -42t-39.5 -105zM399 720h81
q-4 -66 -46.5 -103.5t-114.5 -37.5t-113.5 37.5t-46.5 103.5h80q20 -45 80 -45q57 0 80 45z" />
    <glyph glyph-name="Ohungarumlaut" unicode="&#x150;" horiz-adv-x="822" 
d="M36 360q0 160 107.5 266t267.5 106t267.5 -106t107.5 -266q0 -154 -108.5 -263t-266.5 -109q-160 0 -267.5 106t-107.5 266zM200 360q0 -95 60.5 -159t150.5 -64q89 0 150 66t61 157q0 95 -60.5 159t-150.5 64t-150.5 -64.5t-60.5 -158.5zM265 757l44 121h162l-104 -121
h-102zM431 757l45 121h161l-104 -121h-102z" />
    <glyph glyph-name="ohungarumlaut" unicode="&#x151;" horiz-adv-x="640" 
d="M34 270q0 122 82.5 202.5t204.5 80.5q121 0 203.5 -80.5t82.5 -202.5q0 -117 -83 -199.5t-203 -82.5q-122 0 -204.5 80t-82.5 202zM181 270q0 -62 39.5 -104t99.5 -42q59 0 99.5 43.5t40.5 102.5q0 63 -40 105t-100 42t-99.5 -42t-39.5 -105zM174 574l60 146h146
l-104 -146h-102zM336 574l60 146h146l-104 -146h-102z" />
    <glyph glyph-name="OE" unicode="&#x152;" horiz-adv-x="1106" 
d="M411 732q118 0 211 -61v49h431v-141h-278v-132h267v-141h-267v-165h289v-141h-442v56q-79 -68 -211 -68q-160 0 -267.5 106t-107.5 266t107.5 266t267.5 106zM200 360q0 -95 60.5 -159t150.5 -64q92 0 151.5 61t59.5 162q0 106 -58.5 164.5t-152.5 58.5
q-90 0 -150.5 -64.5t-60.5 -158.5z" />
    <glyph glyph-name="oe" unicode="&#x153;" horiz-adv-x="1021" 
d="M321 553q126 0 210 -87q78 87 193 87q120 0 191.5 -79.5t71.5 -201.5q0 -26 -3 -46h-378q6 -45 42.5 -75t85.5 -30q64 0 97 48l142 -15q-21 -77 -84 -121.5t-155 -44.5q-133 0 -208 86q-83 -86 -205 -86t-204.5 80t-82.5 202t82.5 202.5t204.5 80.5zM181 270
q0 -62 39.5 -104t99.5 -42q59 0 99.5 43.5t40.5 102.5q0 63 -40 105t-100 42t-99.5 -42t-39.5 -105zM608 319h230q-19 101 -116 101q-41 0 -73.5 -26.5t-40.5 -74.5z" />
    <glyph glyph-name="Racute" unicode="&#x154;" horiz-adv-x="629" 
d="M302 272h-81v-272h-153v720h269q113 0 177.5 -62t64.5 -163q0 -130 -126 -191l155 -304h-177zM333 579h-112v-166h107q41 0 64 23t23 59q0 35 -22.5 59.5t-59.5 24.5zM222 758l50 124h169l-104 -124h-115z" />
    <glyph glyph-name="racute" unicode="&#x155;" horiz-adv-x="401" 
d="M398 550v-156q-34 6 -60 6q-93 0 -120 -80q-8 -26 -8 -77v-243h-146v541h146v-111q43 123 154 123q17 0 34 -3zM149 579l60 141h159l-104 -141h-115z" />
    <glyph glyph-name="Rcommaaccent" unicode="&#x156;" horiz-adv-x="629" 
d="M302 272h-81v-272h-153v720h269q113 0 177.5 -62t64.5 -163q0 -130 -126 -191l155 -304h-177zM333 579h-112v-166h107q41 0 64 23t23 59q0 35 -22.5 59.5t-59.5 24.5zM262 -191l-2 156h133l-59 -156h-72z" />
    <glyph glyph-name="rcommaaccent" unicode="&#x157;" horiz-adv-x="401" 
d="M398 550v-156q-34 6 -60 6q-93 0 -120 -80q-8 -26 -8 -77v-243h-146v541h146v-111q43 123 154 123q17 0 34 -3zM71 -191l-2 156h133l-59 -156h-72z" />
    <glyph glyph-name="Rcaron" unicode="&#x158;" horiz-adv-x="629" 
d="M302 272h-81v-272h-153v720h269q113 0 177.5 -62t64.5 -163q0 -130 -126 -191l155 -304h-177zM333 579h-112v-166h107q41 0 64 23t23 59q0 35 -22.5 59.5t-59.5 24.5zM491 882l-122 -125h-153l-121 125h150l48 -46l48 46h150z" />
    <glyph glyph-name="rcaron" unicode="&#x159;" horiz-adv-x="401" 
d="M398 550v-156q-34 6 -60 6q-93 0 -120 -80q-8 -26 -8 -77v-243h-146v541h146v-111q43 123 154 123q17 0 34 -3zM406 720l-118 -141h-141l-117 141h140l48 -51l49 51h139z" />
    <glyph glyph-name="Sacute" unicode="&#x15a;" horiz-adv-x="597" 
d="M268 467l146 -58q67 -26 107 -70q48 -53 48 -143q0 -91 -69 -149.5t-186 -58.5q-114 0 -185 53t-100 143l149 61q22 -57 54 -82.5t89 -25.5q42 0 64.5 17t22.5 47q0 48 -70 75l-134 51q-150 56 -150 194q0 88 65 149.5t169 61.5q97 0 154.5 -42.5t94.5 -115.5l-143 -70
q-46 79 -112 79q-34 0 -52.5 -16t-18.5 -40q0 -38 57 -60zM227 758l50 124h169l-104 -124h-115z" />
    <glyph glyph-name="sacute" unicode="&#x15b;" horiz-adv-x="447" 
d="M422 148q0 -70 -50.5 -115t-128.5 -45q-141 0 -217 111l101 83q49 -64 118 -64q41 0 41 32q0 26 -42 46l-84 40q-110 52 -110 157q0 69 50.5 114.5t124.5 45.5q107 0 172 -88l-94 -91q-41 49 -83 49q-36 0 -36 -29q0 -20 31 -35l83 -40q66 -32 95 -70.5t29 -100.5z
M163 579l60 141h159l-104 -141h-115z" />
    <glyph glyph-name="Scircumflex" unicode="&#x15c;" horiz-adv-x="597" 
d="M268 467l146 -58q67 -26 107 -70q48 -53 48 -143q0 -91 -69 -149.5t-186 -58.5q-114 0 -185 53t-100 143l149 61q22 -57 54 -82.5t89 -25.5q42 0 64.5 17t22.5 47q0 48 -70 75l-134 51q-150 56 -150 194q0 88 65 149.5t169 61.5q97 0 154.5 -42.5t94.5 -115.5l-143 -70
q-46 79 -112 79q-34 0 -52.5 -16t-18.5 -40q0 -38 57 -60zM373 882l122 -125h-150l-48 46l-48 -46h-150l121 125h153z" />
    <glyph glyph-name="scircumflex" unicode="&#x15d;" horiz-adv-x="447" 
d="M422 148q0 -70 -50.5 -115t-128.5 -45q-141 0 -217 111l101 83q49 -64 118 -64q41 0 41 32q0 26 -42 46l-84 40q-110 52 -110 157q0 69 50.5 114.5t124.5 45.5q107 0 172 -88l-94 -91q-41 49 -83 49q-36 0 -36 -29q0 -20 31 -35l83 -40q66 -32 95 -70.5t29 -100.5z
M301 720l118 -141h-139l-49 51l-48 -51h-140l117 141h141z" />
    <glyph glyph-name="Scedilla" unicode="&#x15e;" horiz-adv-x="597" 
d="M284 -181q-53 0 -100 22l17 50q33 -14 60 -14q36 0 36 21q0 18 -25 18q-10 0 -30 -8l-24 32l38 52q-174 24 -227 192l149 61q22 -57 54 -82.5t89 -25.5q42 0 64.5 17t22.5 47q0 48 -70 75l-134 51q-150 56 -150 194q0 88 65 149.5t169 61.5q97 0 154.5 -42.5t94.5 -115.5
l-143 -70q-46 79 -112 79q-34 0 -52.5 -16t-18.5 -40q0 -38 57 -60l146 -58q67 -26 107 -70q48 -53 48 -143q0 -91 -69 -149.5t-186 -58.5h-16l-17 -24q15 5 34 5q36 0 59 -21t23 -49q0 -80 -113 -80z" />
    <glyph glyph-name="scedilla" unicode="&#x15f;" horiz-adv-x="447" 
d="M219 -181q-53 0 -100 22l17 50q33 -14 60 -14q36 0 36 21q0 18 -25 18q-10 0 -30 -8l-24 32l38 52q-104 17 -165 107l101 83q49 -64 118 -64q41 0 41 32q0 26 -42 46l-84 40q-110 52 -110 157q0 69 50.5 114.5t124.5 45.5q107 0 172 -88l-94 -91q-41 49 -83 49
q-36 0 -36 -29q0 -20 31 -35l83 -40q66 -32 95 -70.5t29 -100.5q0 -70 -50.5 -115t-128.5 -45h-10l-17 -24q15 5 34 5q36 0 59 -21t23 -49q0 -80 -113 -80z" />
    <glyph glyph-name="Scaron" unicode="&#x160;" horiz-adv-x="597" 
d="M268 467l146 -58q67 -26 107 -70q48 -53 48 -143q0 -91 -69 -149.5t-186 -58.5q-114 0 -185 53t-100 143l149 61q22 -57 54 -82.5t89 -25.5q42 0 64.5 17t22.5 47q0 48 -70 75l-134 51q-150 56 -150 194q0 88 65 149.5t169 61.5q97 0 154.5 -42.5t94.5 -115.5l-143 -70
q-46 79 -112 79q-34 0 -52.5 -16t-18.5 -40q0 -38 57 -60zM495 882l-122 -125h-153l-121 125h150l48 -46l48 46h150z" />
    <glyph glyph-name="scaron" unicode="&#x161;" horiz-adv-x="447" 
d="M422 148q0 -70 -50.5 -115t-128.5 -45q-141 0 -217 111l101 83q49 -64 118 -64q41 0 41 32q0 26 -42 46l-84 40q-110 52 -110 157q0 69 50.5 114.5t124.5 45.5q107 0 172 -88l-94 -91q-41 49 -83 49q-36 0 -36 -29q0 -20 31 -35l83 -40q66 -32 95 -70.5t29 -100.5z
M419 720l-118 -141h-141l-117 141h140l48 -51l49 51h139z" />
    <glyph glyph-name="Tcedilla" unicode="&#x162;" horiz-adv-x="606" 
d="M296 -181q-53 0 -100 22l17 50q33 -14 60 -14q36 0 36 21q0 18 -25 18q-10 0 -30 -8l-24 32l44 60h-47v579h-207v141h566v-141h-206v-579h-62l-25 -36q15 5 34 5q36 0 59 -21t23 -49q0 -80 -113 -80z" />
    <glyph glyph-name="tcedilla" unicode="&#x163;" horiz-adv-x="358" 
d="M175 -181q-54 0 -105 22l17 50q33 -14 60 -14q36 0 36 21q0 20 -25 20q-19 0 -28 -12l-26 34l44 60h-42v409h-97v132h97v110l146 20v-130h97v-132h-97v-409h-60l-23 -34q15 5 34 5q36 0 59 -22t23 -52q0 -34 -27 -56t-83 -22z" />
    <glyph glyph-name="Tcaron" unicode="&#x164;" horiz-adv-x="606" 
d="M380 579v-579h-153v579h-207v141h566v-141h-206zM501 882l-122 -125h-153l-121 125h150l48 -46l48 46h150z" />
    <glyph glyph-name="tcaron" unicode="&#x165;" horiz-adv-x="358" 
d="M349 541v-132h-97v-409h-146v409h-97v132h97v110l146 20v-130h97zM285 571l-2 166h133l-59 -166h-72z" />
    <glyph glyph-name="Tbar" unicode="&#x166;" horiz-adv-x="612" 
d="M383 323v-323h-153v323h-143v75h143v181h-207v141h566v-141h-206v-181h142v-75h-142z" />
    <glyph glyph-name="tbar" unicode="&#x167;" horiz-adv-x="358" 
d="M9 214v75h97v120h-97v132h97v110l146 20v-130h97v-132h-97v-120h97v-75h-97v-214h-146v214h-97z" />
    <glyph glyph-name="Utilde" unicode="&#x168;" horiz-adv-x="700" 
d="M495 720h143v-446q0 -130 -76 -208t-212 -78q-130 0 -209 79.5t-79 210.5v442h153v-433q0 -69 38.5 -109.5t102.5 -40.5q65 0 102 39t37 106v438zM345 771q-47 17 -64 17q-23 0 -26 -38l-87 13q2 62 33.5 98t80.5 36q18 0 79 -21q44 -16 64 -16q23 0 27 37l86 -9
q-2 -63 -33.5 -100t-80.5 -37q-25 0 -79 20z" />
    <glyph glyph-name="utilde" unicode="&#x169;" horiz-adv-x="591" 
d="M204 541v-302q0 -39 4 -59q12 -57 77 -57q74 0 90 66q6 24 6 61v291h146v-541h-146v88q-58 -100 -147 -100q-68 0 -109.5 34.5t-56.5 89.5q-10 36 -10 121v308h146zM285 596q-47 17 -64 17q-23 0 -26 -38l-87 13q2 62 33.5 98t80.5 36q18 0 79 -21q44 -16 64 -16
q23 0 27 37l86 -9q-2 -63 -33.5 -100t-80.5 -37q-25 0 -79 20z" />
    <glyph glyph-name="Umacron" unicode="&#x16a;" horiz-adv-x="700" 
d="M495 720h143v-446q0 -130 -76 -208t-212 -78q-130 0 -209 79.5t-79 210.5v442h153v-433q0 -69 38.5 -109.5t102.5 -40.5q65 0 102 39t37 106v438zM198 787v96h304v-96h-304z" />
    <glyph glyph-name="umacron" unicode="&#x16b;" horiz-adv-x="591" 
d="M204 541v-302q0 -39 4 -59q12 -57 77 -57q74 0 90 66q6 24 6 61v291h146v-541h-146v88q-58 -100 -147 -100q-68 0 -109.5 34.5t-56.5 89.5q-10 36 -10 121v308h146zM141 624v96h304v-96h-304z" />
    <glyph glyph-name="Ubreve" unicode="&#x16c;" horiz-adv-x="700" 
d="M495 720h143v-446q0 -130 -76 -208t-212 -78q-130 0 -209 79.5t-79 210.5v442h153v-433q0 -69 38.5 -109.5t102.5 -40.5q65 0 102 39t37 106v438zM429 888h77q-4 -60 -45 -96t-111 -36t-110.5 36t-45.5 96h75q21 -36 81 -36q59 0 79 36z" />
    <glyph glyph-name="ubreve" unicode="&#x16d;" horiz-adv-x="591" 
d="M204 541v-302q0 -39 4 -59q12 -57 77 -57q74 0 90 66q6 24 6 61v291h146v-541h-146v88q-58 -100 -147 -100q-68 0 -109.5 34.5t-56.5 89.5q-10 36 -10 121v308h146zM373 720h81q-4 -66 -46.5 -103.5t-114.5 -37.5t-113.5 37.5t-46.5 103.5h80q20 -45 80 -45q57 0 80 45z
" />
    <glyph glyph-name="Uring" unicode="&#x16e;" horiz-adv-x="700" 
d="M495 720h143v-446q0 -130 -76 -208t-212 -78q-130 0 -209 79.5t-79 210.5v442h153v-433q0 -69 38.5 -109.5t102.5 -40.5q65 0 102 39t37 106v438zM234 784q0 48 34 81t81 33t81 -33t34 -81t-34 -81t-81 -33t-81 33t-34 81zM311 784q0 -16 11 -27.5t27 -11.5t27 11.5
t11 27.5q0 17 -11 28t-27 11t-27 -11.5t-11 -27.5z" />
    <glyph glyph-name="uring" unicode="&#x16f;" horiz-adv-x="591" 
d="M204 541v-302q0 -39 4 -59q12 -57 77 -57q74 0 90 66q6 24 6 61v291h146v-541h-146v88q-58 -100 -147 -100q-68 0 -109.5 34.5t-56.5 89.5q-10 36 -10 121v308h146zM178 693q0 48 34 81t81 33t81 -33t34 -81t-34 -81t-81 -33t-81 33t-34 81zM255 693q0 -16 11 -27.5
t27 -11.5t27 11.5t11 27.5q0 17 -11 28t-27 11t-27 -11.5t-11 -27.5z" />
    <glyph glyph-name="Uhungarumlaut" unicode="&#x170;" horiz-adv-x="700" 
d="M495 720h143v-446q0 -130 -76 -208t-212 -78q-130 0 -209 79.5t-79 210.5v442h153v-433q0 -69 38.5 -109.5t102.5 -40.5q65 0 102 39t37 106v438zM203 757l44 121h162l-104 -121h-102zM369 757l45 121h161l-104 -121h-102z" />
    <glyph glyph-name="uhungarumlaut" unicode="&#x171;" horiz-adv-x="591" 
d="M204 541v-302q0 -39 4 -59q12 -57 77 -57q74 0 90 66q6 24 6 61v291h146v-541h-146v88q-58 -100 -147 -100q-68 0 -109.5 34.5t-56.5 89.5q-10 36 -10 121v308h146zM150 574l60 146h146l-104 -146h-102zM312 574l60 146h146l-104 -146h-102z" />
    <glyph glyph-name="Uogonek" unicode="&#x172;" horiz-adv-x="700" 
d="M495 720h143v-446q0 -121 -66.5 -197.5t-185.5 -86.5q-46 -33 -46 -66q0 -31 37 -31q23 0 48 21l28 -51q-33 -44 -94 -44q-42 0 -71 21t-29 57q0 56 63 92q-119 8 -189.5 86.5t-70.5 202.5v442h153v-433q0 -69 38.5 -109.5t102.5 -40.5q65 0 102 39t37 106v438z" />
    <glyph glyph-name="uogonek" unicode="&#x173;" horiz-adv-x="591" 
d="M468 0h-87v88q-58 -100 -147 -100q-68 0 -109.5 34.5t-56.5 89.5q-10 36 -10 121v308h146v-302q0 -39 4 -59q12 -57 77 -57q74 0 90 66q6 24 6 61v291h146v-541q-63 -37 -63 -76q0 -31 37 -31q23 0 48 21l28 -51q-33 -44 -94 -44q-42 0 -71 21t-29 57q0 63 85 103z" />
    <glyph glyph-name="Wcircumflex" unicode="&#x174;" horiz-adv-x="1059" 
d="M769 250l120 470h163l-210 -720h-163l-151 501l-156 -501h-166l-199 720h174l118 -470l141 470h185zM605 882l122 -125h-150l-48 46l-48 -46h-150l121 125h153z" />
    <glyph glyph-name="wcircumflex" unicode="&#x175;" horiz-adv-x="853" 
d="M693 541h162l-170 -541h-156l-107 334l-105 -334h-161l-158 541h169l77 -336l103 336h165l102 -336zM495 720l118 -141h-139l-49 51l-48 -51h-140l117 141h141z" />
    <glyph glyph-name="Ycircumflex" unicode="&#x176;" horiz-adv-x="655" 
d="M330 456l152 264h168l-248 -418v-302h-153v302l-244 418h172zM403 882l122 -125h-150l-48 46l-48 -46h-150l121 125h153z" />
    <glyph glyph-name="ycircumflex" unicode="&#x177;" horiz-adv-x="574" 
d="M413 541h163l-298 -710h-163l92 198l-209 512h166l126 -326zM357 720l118 -141h-139l-49 51l-48 -51h-140l117 141h141z" />
    <glyph glyph-name="Ydieresis" unicode="&#x178;" horiz-adv-x="655" 
d="M330 456l152 264h168l-248 -418v-302h-153v302l-244 418h172zM155 822q0 32 22.5 49.5t57.5 17.5q34 0 56.5 -17.5t22.5 -49.5q0 -33 -22 -50.5t-57 -17.5t-57.5 17.5t-22.5 50.5zM350 822q0 32 22.5 49.5t57.5 17.5t57.5 -17.5t22.5 -49.5t-22.5 -50t-57.5 -18
t-57.5 17.5t-22.5 50.5z" />
    <glyph glyph-name="Zacute" unicode="&#x179;" horiz-adv-x="670" 
d="M55 579v141h571v-132l-376 -447h396v-141h-618v117l387 462h-360zM260 758l50 124h169l-104 -124h-115z" />
    <glyph glyph-name="zacute" unicode="&#x17a;" horiz-adv-x="534" 
d="M38 409v132h461v-100l-252 -309h267v-132h-495v85l264 324h-245zM194 579l60 141h159l-104 -141h-115z" />
    <glyph glyph-name="Zdotaccent" unicode="&#x17b;" horiz-adv-x="670" 
d="M55 579v141h571v-132l-376 -447h396v-141h-618v117l387 462h-360zM235 830q0 36 26.5 54.5t66.5 18.5t66.5 -18.5t26.5 -54.5t-26.5 -54t-66.5 -18t-66.5 18t-26.5 54z" />
    <glyph glyph-name="zdotaccent" unicode="&#x17c;" horiz-adv-x="534" 
d="M38 409v132h461v-100l-252 -309h267v-132h-495v85l264 324h-245zM177 652q0 37 24.5 57.5t63.5 20.5t63.5 -20.5t24.5 -57.5t-24.5 -57.5t-63.5 -20.5t-63.5 20.5t-24.5 57.5z" />
    <glyph glyph-name="Zcaron" unicode="&#x17d;" horiz-adv-x="670" 
d="M55 579v141h571v-132l-376 -447h396v-141h-618v117l387 462h-360zM526 882l-122 -125h-153l-121 125h150l48 -46l48 46h150z" />
    <glyph glyph-name="zcaron" unicode="&#x17e;" horiz-adv-x="534" 
d="M38 409v132h461v-100l-252 -309h267v-132h-495v85l264 324h-245zM453 720l-118 -141h-141l-117 141h140l48 -51l49 51h139z" />
    <glyph glyph-name="Schwa" unicode="&#x18f;" horiz-adv-x="766" 
d="M555 293h-347q24 -156 175 -156q64 0 114 43t58 113zM41 422h514q-13 69 -64 115t-124 46q-93 0 -139 -71l-168 17q26 83 109.5 143t198.5 60q164 0 263 -102.5t99 -267.5q0 -166 -99 -270t-250 -104q-158 0 -252 105.5t-94 266.5q0 30 6 62z" />
    <glyph glyph-name="florin" unicode="&#x192;" horiz-adv-x="454" 
d="M318 541h97l-28 -132h-97l-119 -553l-150 -25l123 578h-97l28 132h97l5 23q37 168 190 168q49 0 96 -15l-31 -130q-27 9 -46 9q-55 0 -68 -55z" />
    <glyph glyph-name="DZcaron" unicode="&#x1c4;" horiz-adv-x="1381" 
d="M68 0v720h245q163 0 262.5 -98t99.5 -262q0 -157 -101.5 -258.5t-266.5 -101.5h-239zM221 579v-438h78q98 0 156.5 61t58.5 158q0 100 -57 159.5t-152 59.5h-84zM766 579v141h571v-132l-376 -447h396v-141h-618v117l387 462h-360zM1237 882l-122 -125h-153l-121 125h150
l48 -46l48 46h150z" />
    <glyph glyph-name="Dzcaron" unicode="&#x1c5;" horiz-adv-x="1245" 
d="M68 0v720h245q163 0 262.5 -98t99.5 -262q0 -157 -101.5 -258.5t-266.5 -101.5h-239zM221 579v-438h78q98 0 156.5 61t58.5 158q0 100 -57 159.5t-152 59.5h-84zM749 409v132h461v-100l-252 -309h267v-132h-495v85l264 324h-245zM1163 720l-118 -141h-141l-117 141h140
l48 -51l49 51h139z" />
    <glyph glyph-name="dzcaron" unicode="&#x1c6;" horiz-adv-x="1183" 
d="M185 272q0 -63 37 -107.5t94 -44.5q58 0 93 39t35 113q0 65 -37 108t-93 43q-60 0 -94.5 -40.5t-34.5 -110.5zM34 272q0 124 71 202.5t174 78.5q106 0 160 -83v250h146v-720h-146v70q-59 -82 -167 -82q-99 0 -168.5 79.5t-69.5 204.5zM687 409v132h461v-100l-252 -309
h267v-132h-495v85l264 324h-245zM1102 720l-118 -141h-141l-117 141h140l48 -51l49 51h139z" />
    <glyph glyph-name="LJ" unicode="&#x1c7;" horiz-adv-x="923" 
d="M68 0v720h153v-579h269v-141h-422zM628 138q38 0 60 18.5t22 50.5v513h153v-522q0 -98 -58 -154t-163 -56q-56 0 -87 9l12 147q27 -6 61 -6z" />
    <glyph glyph-name="Lj" unicode="&#x1c8;" horiz-adv-x="788" 
d="M68 0v720h153v-579h269v-141h-422zM724 541v-690l-146 -20v710h146zM563 652q0 37 24.5 57.5t63.5 20.5t63.5 -20.5t24.5 -57.5t-24.5 -57.5t-63.5 -20.5t-63.5 20.5t-24.5 57.5z" />
    <glyph glyph-name="lj" unicode="&#x1c9;" horiz-adv-x="548" 
d="M210 720v-720h-146v720h146zM484 541v-690l-146 -20v710h146zM323 652q0 37 24.5 57.5t63.5 20.5t63.5 -20.5t24.5 -57.5t-24.5 -57.5t-63.5 -20.5t-63.5 20.5t-24.5 57.5z" />
    <glyph glyph-name="NJ" unicode="&#x1ca;" horiz-adv-x="1116" 
d="M495 0l-284 449v-449h-143v720h152l294 -460v460h143v-720h-162zM821 138q82 0 82 88v494h153v-514q0 -99 -58 -158.5t-163 -59.5q-47 0 -86 11l11 146q32 -7 61 -7z" />
    <glyph glyph-name="Nj" unicode="&#x1cb;" horiz-adv-x="999" 
d="M495 0l-284 449v-449h-143v720h152l294 -460v460h143v-720h-162zM935 541v-690l-146 -20v710h146zM774 652q0 37 24.5 57.5t63.5 20.5t63.5 -20.5t24.5 -57.5t-24.5 -57.5t-63.5 -20.5t-63.5 20.5t-24.5 57.5z" />
    <glyph glyph-name="nj" unicode="&#x1cc;" horiz-adv-x="865" 
d="M387 0v298q0 43 -3 57q-11 64 -78 64q-69 0 -89 -66q-7 -21 -7 -62v-291h-146v541h146v-87q53 99 155 99q63 0 104.5 -33t55.5 -86q8 -32 8 -98v-336h-146zM801 541v-690l-146 -20v710h146zM640 652q0 37 24.5 57.5t63.5 20.5t63.5 -20.5t24.5 -57.5t-24.5 -57.5
t-63.5 -20.5t-63.5 20.5t-24.5 57.5z" />
    <glyph glyph-name="Oogonek" unicode="&#x1ea;" horiz-adv-x="822" 
d="M36 360q0 160 107.5 266t267.5 106t267.5 -106t107.5 -266q0 -146 -98.5 -253t-245.5 -118q-45 -31 -45 -65q0 -31 37 -31q24 0 48 21l28 -51q-33 -44 -94 -44q-42 0 -71 21t-29 57q0 57 63 92q-149 11 -246 115.5t-97 255.5zM200 360q0 -95 60.5 -159t150.5 -64
q89 0 150 66t61 157q0 95 -60.5 159t-150.5 64t-150.5 -64.5t-60.5 -158.5z" />
    <glyph glyph-name="oogonek" unicode="&#x1eb;" horiz-adv-x="640" 
d="M34 270q0 122 82.5 202.5t204.5 80.5q121 0 203.5 -80.5t82.5 -202.5q0 -109 -74 -189.5t-184 -90.5q-46 -32 -46 -66q0 -31 37 -31q24 0 48 21l28 -51q-33 -44 -94 -44q-42 0 -71 21t-29 57q0 57 64 93q-110 11 -181 89t-71 191zM181 270q0 -62 39.5 -104t99.5 -42
q59 0 99.5 43.5t40.5 102.5q0 63 -40 105t-100 42t-99.5 -42t-39.5 -105z" />
    <glyph glyph-name="DZ" unicode="&#x1f1;" horiz-adv-x="1381" 
d="M68 0v720h245q163 0 262.5 -98t99.5 -262q0 -157 -101.5 -258.5t-266.5 -101.5h-239zM221 579v-438h78q98 0 156.5 61t58.5 158q0 100 -57 159.5t-152 59.5h-84zM766 579v141h571v-132l-376 -447h396v-141h-618v117l387 462h-360z" />
    <glyph glyph-name="Dz" unicode="&#x1f2;" horiz-adv-x="1245" 
d="M68 0v720h245q163 0 262.5 -98t99.5 -262q0 -157 -101.5 -258.5t-266.5 -101.5h-239zM221 579v-438h78q98 0 156.5 61t58.5 158q0 100 -57 159.5t-152 59.5h-84zM749 409v132h461v-100l-252 -309h267v-132h-495v85l264 324h-245z" />
    <glyph glyph-name="dz" unicode="&#x1f3;" horiz-adv-x="1183" 
d="M185 272q0 -63 37 -107.5t94 -44.5q58 0 93 39t35 113q0 65 -37 108t-93 43q-60 0 -94.5 -40.5t-34.5 -110.5zM34 272q0 124 71 202.5t174 78.5q106 0 160 -83v250h146v-720h-146v70q-59 -82 -167 -82q-99 0 -168.5 79.5t-69.5 204.5zM687 409v132h461v-100l-252 -309
h267v-132h-495v85l264 324h-245z" />
    <glyph glyph-name="Gacute" unicode="&#x1f4;" horiz-adv-x="787" 
d="M411 732q113 0 185.5 -41t117.5 -121l-136 -84q-63 97 -167 97q-90 0 -150 -64.5t-60 -158.5q0 -96 60 -159.5t155 -63.5q69 0 114 35.5t63 86.5h-219v140h365v-399h-142v89q-76 -101 -205 -101q-143 0 -249.5 107t-106.5 265q0 160 108.5 266t266.5 106zM343 758l50 124
h169l-104 -124h-115z" />
    <glyph glyph-name="gacute" unicode="&#x1f5;" horiz-adv-x="633" 
d="M569 541v-452q0 -122 -71.5 -195.5t-193.5 -73.5q-115 0 -181 53t-79 127l144 17q23 -68 118 -68q58 0 87.5 36.5t29.5 101.5v33q-55 -78 -149 -78q-101 0 -170 72.5t-69 184.5t69.5 183t168.5 71q92 0 150 -81v69h146zM186 297q0 -51 34 -87.5t88 -36.5q55 0 88 32
t33 92q0 55 -33.5 90.5t-87.5 35.5q-57 0 -89.5 -33.5t-32.5 -92.5zM254 579l60 141h159l-104 -141h-115z" />
    <glyph glyph-name="Aringacute" unicode="&#x1fa;" horiz-adv-x="722" 
d="M245 784q0 48 34 81t81 33t81 -33t34 -81q0 -45 -31 -78l272 -706h-164l-50 135h-291l-50 -135h-155l273 702q-34 34 -34 82zM357 520l-90 -247h181zM322 784q0 -16 11 -27.5t27 -11.5t27 11.5t11 27.5q0 17 -11 28t-27 11t-27 -11.5t-11 -27.5zM293 918l50 124h169
l-104 -124h-115z" />
    <glyph glyph-name="aringacute" unicode="&#x1fb;" horiz-adv-x="560" 
d="M354 223v29q-11 -11 -50 -22l-53 -14q-42 -11 -58 -27.5t-16 -38.5q0 -23 17.5 -37.5t47.5 -14.5q48 0 80 32t32 93zM280 553q144 0 196 -99q24 -46 24 -117v-191q0 -31 28 -31q5 0 19 4v-122q-16 -9 -47 -9q-101 0 -139 88q-58 -88 -160 -88q-72 0 -120.5 41t-48.5 110
q0 70 45.5 107.5t138.5 55.5l102 20q36 6 36 37q0 28 -22 46t-59 18q-68 0 -81 -63l-146 7q7 81 69.5 133.5t164.5 52.5zM165 693q0 48 34 81t81 33t81 -33t34 -81t-34 -81t-81 -33t-81 33t-34 81zM242 693q0 -16 11 -27.5t27 -11.5t27 11.5t11 27.5q0 17 -11 28t-27 11
t-27 -11.5t-11 -27.5zM212 830l50 124h169l-104 -124h-115z" />
    <glyph glyph-name="AEacute" unicode="&#x1fc;" horiz-adv-x="1007" 
d="M523 0v139h-254l-82 -139h-181l454 720h494v-141h-278v-132h267v-141h-267v-165h289v-141h-442zM523 566l-171 -289h171v289zM475 758l50 124h169l-104 -124h-115z" />
    <glyph glyph-name="aeacute" unicode="&#x1fd;" horiz-adv-x="916" 
d="M210 -12q-80 0 -129 40.5t-49 110.5t45.5 107.5t138.5 55.5l102 20q36 6 36 37q0 28 -22 46t-59 18q-68 0 -81 -63l-146 7q7 81 69.5 133.5t164.5 52.5q112 0 170 -63q74 63 169 63q120 0 191.5 -79.5t71.5 -201.5q0 -26 -3 -46h-378q6 -45 42.5 -75t85.5 -30q64 0 97 48
l142 -15q-21 -77 -84 -121.5t-155 -44.5q-161 0 -233 120q-53 -120 -186 -120zM503 319h230q-19 101 -116 101q-41 0 -73.5 -26.5t-40.5 -74.5zM354 223v29q-11 -11 -50 -22l-53 -14q-42 -11 -58 -27.5t-16 -38.5q0 -23 17.5 -37.5t47.5 -14.5q48 0 80 32t32 93zM381 579
l60 141h159l-104 -141h-115z" />
    <glyph glyph-name="Oslashacute" unicode="&#x1fe;" horiz-adv-x="828" 
d="M17 17l104 104q-82 105 -82 239q0 160 108 266t268 106q136 0 239 -81l105 106l52 -52l-105 -105q84 -105 84 -240q0 -154 -108.5 -263t-266.5 -109q-137 0 -239 80l-105 -105zM203 360q0 -67 33 -124l306 304q-56 43 -127 43q-90 0 -151 -64.5t-61 -158.5zM626 360
q0 68 -35 125l-304 -305q54 -43 128 -43q89 0 150 66t61 157zM346 758l50 124h169l-104 -124h-115z" />
    <glyph glyph-name="oslashacute" unicode="&#x1ff;" horiz-adv-x="646" 
d="M253 579l60 141h159l-104 -141h-115zM12 16l82 81q-57 74 -57 173q0 122 82.5 202.5t204.5 80.5q98 0 173 -55l85 84l52 -52l-84 -84q60 -74 60 -176q0 -117 -83 -199.5t-203 -82.5q-101 0 -176 56l-82 -82zM463 270q0 35 -17 72l-197 -197q31 -21 74 -21q59 0 99.5 43.5
t40.5 102.5zM184 270q0 -39 15 -69l198 196q-37 20 -74 20q-60 0 -99.5 -42t-39.5 -105z" />
    <glyph glyph-name="Adblgrave" unicode="&#x200;" horiz-adv-x="722" 
d="M161 0h-155l280 720h153l277 -720h-164l-50 135h-291zM357 520l-90 -247h181zM288 878l45 -121h-102l-104 121h161zM455 878l44 -121h-102l-104 121h162z" />
    <glyph glyph-name="adblgrave" unicode="&#x201;" horiz-adv-x="560" 
d="M354 223v29q-11 -11 -50 -22l-53 -14q-42 -11 -58 -27.5t-16 -38.5q0 -23 17.5 -37.5t47.5 -14.5q48 0 80 32t32 93zM280 553q144 0 196 -99q24 -46 24 -117v-191q0 -31 28 -31q5 0 19 4v-122q-16 -9 -47 -9q-101 0 -139 88q-58 -88 -160 -88q-72 0 -120.5 41t-48.5 110
q0 70 45.5 107.5t138.5 55.5l102 20q36 6 36 37q0 28 -22 46t-59 18q-68 0 -81 -63l-146 7q7 81 69.5 133.5t164.5 52.5zM201 720l59 -146h-102l-104 146h147zM363 720l59 -146h-102l-104 146h147z" />
    <glyph glyph-name="Ainvbreve" unicode="&#x202;" horiz-adv-x="722" 
d="M161 0h-155l280 720h153l277 -720h-164l-50 135h-291zM357 520l-90 -247h181zM510 756h-77q-20 36 -79 36q-60 0 -81 -36h-75q5 60 45.5 96t110.5 36t111 -36t45 -96z" />
    <glyph glyph-name="ainvbreve" unicode="&#x203;" horiz-adv-x="560" 
d="M354 223v29q-11 -11 -50 -22l-53 -14q-42 -11 -58 -27.5t-16 -38.5q0 -23 17.5 -37.5t47.5 -14.5q48 0 80 32t32 93zM280 553q144 0 196 -99q24 -46 24 -117v-191q0 -31 28 -31q5 0 19 4v-122q-16 -9 -47 -9q-101 0 -139 88q-58 -88 -160 -88q-72 0 -120.5 41t-48.5 110
q0 70 45.5 107.5t138.5 55.5l102 20q36 6 36 37q0 28 -22 46t-59 18q-68 0 -81 -63l-146 7q7 81 69.5 133.5t164.5 52.5zM441 579h-81q-23 45 -80 45q-60 0 -80 -45h-80q5 66 46.5 103.5t113.5 37.5t114.5 -37.5t46.5 -103.5z" />
    <glyph glyph-name="Edblgrave" unicode="&#x204;" horiz-adv-x="552" 
d="M68 0v720h431v-141h-278v-132h267v-141h-267v-165h289v-141h-442zM215 878l45 -121h-102l-104 121h161zM382 878l44 -121h-102l-104 121h162z" />
    <glyph glyph-name="edblgrave" unicode="&#x205;" horiz-adv-x="598" 
d="M185 319h230q-19 101 -116 101q-41 0 -73.5 -26.5t-40.5 -74.5zM561 226h-378q6 -45 42.5 -75t85.5 -30q64 0 97 48l142 -15q-21 -77 -84 -121.5t-155 -44.5q-124 0 -199 77t-75 205q0 124 78 203.5t186 79.5q120 0 191.5 -79.5t71.5 -201.5q0 -26 -3 -46zM229 720
l59 -146h-102l-104 146h147zM391 720l59 -146h-102l-104 146h147z" />
    <glyph glyph-name="Einvbreve" unicode="&#x206;" horiz-adv-x="552" 
d="M68 0v720h431v-141h-278v-132h267v-141h-267v-165h289v-141h-442zM437 756h-77q-20 36 -79 36q-60 0 -81 -36h-75q5 60 45.5 96t110.5 36t111 -36t45 -96z" />
    <glyph glyph-name="einvbreve" unicode="&#x207;" horiz-adv-x="598" 
d="M185 319h230q-19 101 -116 101q-41 0 -73.5 -26.5t-40.5 -74.5zM561 226h-378q6 -45 42.5 -75t85.5 -30q64 0 97 48l142 -15q-21 -77 -84 -121.5t-155 -44.5q-124 0 -199 77t-75 205q0 124 78 203.5t186 79.5q120 0 191.5 -79.5t71.5 -201.5q0 -26 -3 -46zM469 579h-81
q-23 45 -80 45q-60 0 -80 -45h-80q5 66 46.5 103.5t113.5 37.5t114.5 -37.5t46.5 -103.5z" />
    <glyph glyph-name="Idblgrave" unicode="&#x208;" horiz-adv-x="289" 
d="M221 720v-720h-153v720h153zM78 878l45 -121h-102l-104 121h161zM245 878l44 -121h-102l-104 121h162z" />
    <glyph glyph-name="idblgrave" unicode="&#x209;" horiz-adv-x="280" 
d="M60 720l59 -146h-102l-104 146h147zM222 720l59 -146h-102l-104 146h147zM213 541v-541h-146v541h146z" />
    <glyph glyph-name="Iinvbreve" unicode="&#x20a;" horiz-adv-x="289" 
d="M221 720v-720h-153v720h153zM300 756h-77q-20 36 -79 36q-60 0 -81 -36h-75q5 60 45.5 96t110.5 36t111 -36t45 -96z" />
    <glyph glyph-name="iinvbreve" unicode="&#x20b;" horiz-adv-x="274" 
d="M210 541v-541h-146v541h146zM298 579h-81q-23 45 -80 45q-60 0 -80 -45h-80q5 66 46.5 103.5t113.5 37.5t114.5 -37.5t46.5 -103.5z" />
    <glyph glyph-name="Odblgrave" unicode="&#x20c;" horiz-adv-x="822" 
d="M36 360q0 160 107.5 266t267.5 106t267.5 -106t107.5 -266q0 -154 -108.5 -263t-266.5 -109q-160 0 -267.5 106t-107.5 266zM200 360q0 -95 60.5 -159t150.5 -64q89 0 150 66t61 157q0 95 -60.5 159t-150.5 64t-150.5 -64.5t-60.5 -158.5zM345 878l45 -121h-102l-104 121
h161zM512 878l44 -121h-102l-104 121h162z" />
    <glyph glyph-name="odblgrave" unicode="&#x20d;" horiz-adv-x="640" 
d="M34 270q0 122 82.5 202.5t204.5 80.5q121 0 203.5 -80.5t82.5 -202.5q0 -117 -83 -199.5t-203 -82.5q-122 0 -204.5 80t-82.5 202zM181 270q0 -62 39.5 -104t99.5 -42q59 0 99.5 43.5t40.5 102.5q0 63 -40 105t-100 42t-99.5 -42t-39.5 -105zM239 720l59 -146h-102
l-104 146h147zM401 720l59 -146h-102l-104 146h147z" />
    <glyph glyph-name="Oinvbreve" unicode="&#x20e;" horiz-adv-x="822" 
d="M36 360q0 160 107.5 266t267.5 106t267.5 -106t107.5 -266q0 -154 -108.5 -263t-266.5 -109q-160 0 -267.5 106t-107.5 266zM200 360q0 -95 60.5 -159t150.5 -64q89 0 150 66t61 157q0 95 -60.5 159t-150.5 64t-150.5 -64.5t-60.5 -158.5zM567 756h-77q-20 36 -79 36
q-60 0 -81 -36h-75q5 60 45.5 96t110.5 36t111 -36t45 -96z" />
    <glyph glyph-name="oinvbreve" unicode="&#x20f;" horiz-adv-x="640" 
d="M34 270q0 122 82.5 202.5t204.5 80.5q121 0 203.5 -80.5t82.5 -202.5q0 -117 -83 -199.5t-203 -82.5q-122 0 -204.5 80t-82.5 202zM181 270q0 -62 39.5 -104t99.5 -42q59 0 99.5 43.5t40.5 102.5q0 63 -40 105t-100 42t-99.5 -42t-39.5 -105zM480 579h-81q-23 45 -80 45
q-60 0 -80 -45h-80q5 66 46.5 103.5t113.5 37.5t114.5 -37.5t46.5 -103.5z" />
    <glyph glyph-name="Rdblgrave" unicode="&#x210;" horiz-adv-x="629" 
d="M302 272h-81v-272h-153v720h269q113 0 177.5 -62t64.5 -163q0 -130 -126 -191l155 -304h-177zM333 579h-112v-166h107q41 0 64 23t23 59q0 35 -22.5 59.5t-59.5 24.5zM227 878l45 -121h-102l-104 121h161zM394 878l44 -121h-102l-104 121h162z" />
    <glyph glyph-name="rdblgrave" unicode="&#x211;" horiz-adv-x="401" 
d="M398 550v-156q-34 6 -60 6q-93 0 -120 -80q-8 -26 -8 -77v-243h-146v541h146v-111q43 123 154 123q17 0 34 -3zM140 720l59 -146h-102l-104 146h147zM302 720l59 -146h-102l-104 146h147z" />
    <glyph glyph-name="Rinvbreve" unicode="&#x212;" horiz-adv-x="629" 
d="M302 272h-81v-272h-153v720h269q113 0 177.5 -62t64.5 -163q0 -130 -126 -191l155 -304h-177zM333 579h-112v-166h107q41 0 64 23t23 59q0 35 -22.5 59.5t-59.5 24.5zM449 756h-77q-20 36 -79 36q-60 0 -81 -36h-75q5 60 45.5 96t110.5 36t111 -36t45 -96z" />
    <glyph glyph-name="rinvbreve" unicode="&#x213;" horiz-adv-x="401" 
d="M398 550v-156q-34 6 -60 6q-93 0 -120 -80q-8 -26 -8 -77v-243h-146v541h146v-111q43 123 154 123q17 0 34 -3zM379 579h-81q-23 45 -80 45q-60 0 -80 -45h-80q5 66 46.5 103.5t113.5 37.5t114.5 -37.5t46.5 -103.5z" />
    <glyph glyph-name="Udblgrave" unicode="&#x214;" horiz-adv-x="700" 
d="M495 720h143v-446q0 -130 -76 -208t-212 -78q-130 0 -209 79.5t-79 210.5v442h153v-433q0 -69 38.5 -109.5t102.5 -40.5q65 0 102 39t37 106v438zM278 878l45 -121h-102l-104 121h161zM445 878l44 -121h-102l-104 121h162z" />
    <glyph glyph-name="udblgrave" unicode="&#x215;" horiz-adv-x="591" 
d="M204 541v-302q0 -39 4 -59q12 -57 77 -57q74 0 90 66q6 24 6 61v291h146v-541h-146v88q-58 -100 -147 -100q-68 0 -109.5 34.5t-56.5 89.5q-10 36 -10 121v308h146zM213 720l59 -146h-102l-104 146h147zM375 720l59 -146h-102l-104 146h147z" />
    <glyph glyph-name="Uinvbreve" unicode="&#x216;" horiz-adv-x="700" 
d="M495 720h143v-446q0 -130 -76 -208t-212 -78q-130 0 -209 79.5t-79 210.5v442h153v-433q0 -69 38.5 -109.5t102.5 -40.5q65 0 102 39t37 106v438zM500 756h-77q-20 36 -79 36q-60 0 -81 -36h-75q5 60 45.5 96t110.5 36t111 -36t45 -96z" />
    <glyph glyph-name="uinvbreve" unicode="&#x217;" horiz-adv-x="591" 
d="M204 541v-302q0 -39 4 -59q12 -57 77 -57q74 0 90 66q6 24 6 61v291h146v-541h-146v88q-58 -100 -147 -100q-68 0 -109.5 34.5t-56.5 89.5q-10 36 -10 121v308h146zM454 579h-81q-23 45 -80 45q-60 0 -80 -45h-80q5 66 46.5 103.5t113.5 37.5t114.5 -37.5t46.5 -103.5z
" />
    <glyph glyph-name="Scommaaccent" unicode="&#x218;" horiz-adv-x="597" 
d="M268 467l146 -58q67 -26 107 -70q48 -53 48 -143q0 -91 -69 -149.5t-186 -58.5q-114 0 -185 53t-100 143l149 61q22 -57 54 -82.5t89 -25.5q42 0 64.5 17t22.5 47q0 48 -70 75l-134 51q-150 56 -150 194q0 88 65 149.5t169 61.5q97 0 154.5 -42.5t94.5 -115.5l-143 -70
q-46 79 -112 79q-34 0 -52.5 -16t-18.5 -40q0 -38 57 -60zM250 -191l-2 156h133l-59 -156h-72z" />
    <glyph glyph-name="scommaaccent" unicode="&#x219;" horiz-adv-x="447" 
d="M422 148q0 -70 -50.5 -115t-128.5 -45q-141 0 -217 111l101 83q49 -64 118 -64q41 0 41 32q0 26 -42 46l-84 40q-110 52 -110 157q0 69 50.5 114.5t124.5 45.5q107 0 172 -88l-94 -91q-41 49 -83 49q-36 0 -36 -29q0 -20 31 -35l83 -40q66 -32 95 -70.5t29 -100.5z
M164 -191l-2 156h133l-59 -156h-72z" />
    <glyph glyph-name="Tcomma" unicode="&#x21a;" horiz-adv-x="606" 
d="M380 579v-579h-153v579h-207v141h566v-141h-206zM243 -191l-2 156h133l-59 -156h-72z" />
    <glyph glyph-name="tcomma" unicode="&#x21b;" horiz-adv-x="358" 
d="M349 541v-132h-97v-409h-146v409h-97v132h97v110l146 20v-130h97zM114 -191l-2 156h133l-59 -156h-72z" />
    <glyph glyph-name="dotlessj" unicode="&#x237;" horiz-adv-x="274" 
d="M210 541v-690l-146 -20v710h146z" />
    <glyph glyph-name="schwa" unicode="&#x259;" horiz-adv-x="598" 
d="M413 222h-230q6 -44 36 -72.5t80 -28.5q41 0 73.5 26.5t40.5 74.5zM37 315h378q-6 46 -41 75.5t-80 29.5q-71 0 -104 -50l-138 27q25 68 88.5 112t152.5 44q119 0 193.5 -77t74.5 -205q0 -124 -78 -203.5t-186 -79.5q-120 0 -191.5 79.5t-71.5 201.5q0 27 3 46z" />
    <glyph glyph-name="hsuperior" unicode="&#x2b0;" horiz-adv-x="455" 
d="M405 429v-249h-117v225q0 21 -2 41q-3 19 -17.5 30.5t-35.5 11.5q-47 0 -61 -44q-5 -15 -5 -45v-219h-117v540h117v-184q39 61 109 61q49 0 81 -25.5t42 -67.5q6 -24 6 -75z" />
    <glyph glyph-name="jsuperior" unicode="&#x2b2;" horiz-adv-x="217" 
d="M166 588v-517l-117 -16v533h117zM38 669q0 28 19.5 43t50.5 15t49.5 -15t18.5 -43q0 -29 -18.5 -44.5t-49.5 -15.5t-50.5 15.5t-19.5 44.5z" />
    <glyph glyph-name="wsuperior" unicode="&#x2b7;" horiz-adv-x="661" 
d="M519 588h130l-127 -408h-122l-76 234l-73 -234h-127l-119 408h136l53 -232l71 232h129l72 -232z" />
    <glyph glyph-name="ysuperior" unicode="&#x2b8;" horiz-adv-x="451" 
d="M314 588h130l-223 -533h-133l70 153l-155 380h134l88 -233z" />
    <glyph glyph-name="apostrophe" unicode="&#x2bc;" horiz-adv-x="265" 
d="M36 432l32 288h161l-104 -288h-89z" />
    <glyph glyph-name="circumflex" unicode="&#x2c6;" horiz-adv-x="500" 
d="M320 720l118 -141h-139l-49 51l-48 -51h-140l117 141h141z" />
    <glyph glyph-name="caron" unicode="&#x2c7;" horiz-adv-x="500" 
d="M438 720l-118 -141h-141l-117 141h140l48 -51l49 51h139z" />
    <glyph glyph-name="breve" unicode="&#x2d8;" horiz-adv-x="500" 
d="M330 720h81q-4 -66 -46.5 -103.5t-114.5 -37.5t-113.5 37.5t-46.5 103.5h80q20 -45 80 -45q57 0 80 45z" />
    <glyph glyph-name="dotaccent" unicode="&#x2d9;" horiz-adv-x="500" 
d="M162 652q0 37 24.5 57.5t63.5 20.5t63.5 -20.5t24.5 -57.5t-24.5 -57.5t-63.5 -20.5t-63.5 20.5t-24.5 57.5z" />
    <glyph glyph-name="ring" unicode="&#x2da;" horiz-adv-x="500" 
d="M135 693q0 48 34 81t81 33t81 -33t34 -81t-34 -81t-81 -33t-81 33t-34 81zM212 693q0 -16 11 -27.5t27 -11.5t27 11.5t11 27.5q0 17 -11 28t-27 11t-27 -11.5t-11 -27.5z" />
    <glyph glyph-name="ogonek" unicode="&#x2db;" horiz-adv-x="500" 
d="M239 0h59q-63 -37 -63 -76q0 -31 37 -31q24 0 48 21l28 -51q-33 -44 -94 -44q-42 0 -71 21t-29 57q0 63 85 103z" />
    <glyph glyph-name="tilde" unicode="&#x2dc;" horiz-adv-x="500" 
d="M242 596q-47 17 -64 17q-23 0 -26 -38l-87 13q2 62 33.5 98t80.5 36q18 0 79 -21q44 -16 64 -16q23 0 27 37l86 -9q-2 -63 -33.5 -100t-80.5 -37q-25 0 -79 20z" />
    <glyph glyph-name="hungarumlaut" unicode="&#x2dd;" horiz-adv-x="500" 
d="M65 574l60 146h146l-104 -146h-102zM227 574l60 146h146l-104 -146h-102z" />
    <glyph glyph-name="xsuperior" unicode="&#x2e3;" horiz-adv-x="428" 
d="M270 588h138l-120 -199l130 -209h-144l-68 120l-56 -120h-144l125 222l-116 186h147l56 -103z" />
    <glyph glyph-name="uni0394" unicode="&#x394;" horiz-adv-x="722" 
d="M716 0h-710l280 720h154zM358 517l-142 -376h285z" />
    <glyph glyph-name="uni03A9" unicode="&#x3a9;" horiz-adv-x="729" 
d="M204 408q0 -66 34 -109t84 -63v-236h-273v141h136v15q-145 95 -145 255q0 138 92.5 229.5t231.5 91.5q140 0 232.5 -91t92.5 -229q0 -63 -20 -113t-50.5 -81.5t-76.5 -59.5v-17h136v-141h-273v236q48 18 84 63.5t36 108.5q0 75 -45 125t-116 50q-70 0 -115 -50t-45 -125z
" />
    <glyph glyph-name="uni03BC" unicode="&#x3bc;" horiz-adv-x="597" 
d="M64 -169v710h146v-302q0 -39 4 -59q12 -57 77 -57q74 0 90 66q6 24 6 61v291h146v-541h-146v88q-58 -100 -147 -100q-12 0 -30 2v-159h-146z" />
    <glyph glyph-name="pi" unicode="&#x3c0;" horiz-adv-x="690" 
d="M675 409h-97v-409h-146v409h-174v-409h-146v409h-97v132h660v-132z" />
    <glyph glyph-name="Ddotbelow" unicode="&#x1e0c;" horiz-adv-x="711" 
d="M68 0v720h245q163 0 262.5 -98t99.5 -262q0 -157 -101.5 -258.5t-266.5 -101.5h-239zM221 579v-438h78q98 0 156.5 61t58.5 158q0 100 -57 159.5t-152 59.5h-84zM236 -129q0 37 24.5 57.5t63.5 20.5t63.5 -20.5t24.5 -57.5t-24.5 -57.5t-63.5 -20.5t-63.5 20.5
t-24.5 57.5z" />
    <glyph glyph-name="ddotbelow" unicode="&#x1e0d;" horiz-adv-x="649" 
d="M185 272q0 -63 37 -107.5t94 -44.5q58 0 93 39t35 113q0 65 -37 108t-93 43q-60 0 -94.5 -40.5t-34.5 -110.5zM34 272q0 124 71 202.5t174 78.5q106 0 160 -83v250h146v-720h-146v70q-59 -82 -167 -82q-99 0 -168.5 79.5t-69.5 204.5zM182 -129q0 37 24.5 57.5t63.5 20.5
t63.5 -20.5t24.5 -57.5t-24.5 -57.5t-63.5 -20.5t-63.5 20.5t-24.5 57.5z" />
    <glyph glyph-name="Hdotbelow" unicode="&#x1e24;" horiz-adv-x="724" 
d="M503 0v306h-282v-306h-153v720h153v-273h282v273h153v-720h-153zM274 -129q0 37 24.5 57.5t63.5 20.5t63.5 -20.5t24.5 -57.5t-24.5 -57.5t-63.5 -20.5t-63.5 20.5t-24.5 57.5z" />
    <glyph glyph-name="hdotbelow" unicode="&#x1e25;" horiz-adv-x="591" 
d="M210 0h-146v720h146v-266q53 99 155 99q63 0 104.5 -33t55.5 -86q8 -32 8 -98v-336h-146v298q0 43 -3 57q-11 64 -78 64q-69 0 -89 -66q-7 -21 -7 -62v-291zM205 -129q0 37 24.5 57.5t63.5 20.5t63.5 -20.5t24.5 -57.5t-24.5 -57.5t-63.5 -20.5t-63.5 20.5t-24.5 57.5z
" />
    <glyph glyph-name="Ndotabove" unicode="&#x1e44;" horiz-adv-x="725" 
d="M495 0l-284 449v-449h-143v720h152l294 -460v460h143v-720h-162zM280 830q0 36 26.5 54.5t66.5 18.5t66.5 -18.5t26.5 -54.5t-26.5 -54t-66.5 -18t-66.5 18t-26.5 54z" />
    <glyph glyph-name="ndotabove" unicode="&#x1e45;" horiz-adv-x="591" 
d="M387 0v298q0 43 -3 57q-11 64 -78 64q-69 0 -89 -66q-7 -21 -7 -62v-291h-146v541h146v-87q53 99 155 99q63 0 104.5 -33t55.5 -86q8 -32 8 -98v-336h-146zM215 652q0 37 24.5 57.5t63.5 20.5t63.5 -20.5t24.5 -57.5t-24.5 -57.5t-63.5 -20.5t-63.5 20.5t-24.5 57.5z" />
    <glyph glyph-name="Rdotbelow" unicode="&#x1e5a;" horiz-adv-x="629" 
d="M302 272h-81v-272h-153v720h269q113 0 177.5 -62t64.5 -163q0 -130 -126 -191l155 -304h-177zM333 579h-112v-166h107q41 0 64 23t23 59q0 35 -22.5 59.5t-59.5 24.5zM239 -129q0 37 24.5 57.5t63.5 20.5t63.5 -20.5t24.5 -57.5t-24.5 -57.5t-63.5 -20.5t-63.5 20.5
t-24.5 57.5z" />
    <glyph glyph-name="rdotbelow" unicode="&#x1e5b;" horiz-adv-x="401" 
d="M398 550v-156q-34 6 -60 6q-93 0 -120 -80q-8 -26 -8 -77v-243h-146v541h146v-111q43 123 154 123q17 0 34 -3zM44 -129q0 37 24.5 57.5t63.5 20.5t63.5 -20.5t24.5 -57.5t-24.5 -57.5t-63.5 -20.5t-63.5 20.5t-24.5 57.5z" />
    <glyph glyph-name="Sdotbelow" unicode="&#x1e62;" horiz-adv-x="597" 
d="M268 467l146 -58q67 -26 107 -70q48 -53 48 -143q0 -91 -69 -149.5t-186 -58.5q-114 0 -185 53t-100 143l149 61q22 -57 54 -82.5t89 -25.5q42 0 64.5 17t22.5 47q0 48 -70 75l-134 51q-150 56 -150 194q0 88 65 149.5t169 61.5q97 0 154.5 -42.5t94.5 -115.5l-143 -70
q-46 79 -112 79q-34 0 -52.5 -16t-18.5 -40q0 -38 57 -60zM225 -129q0 37 24.5 57.5t63.5 20.5t63.5 -20.5t24.5 -57.5t-24.5 -57.5t-63.5 -20.5t-63.5 20.5t-24.5 57.5z" />
    <glyph glyph-name="sdotbelow" unicode="&#x1e63;" horiz-adv-x="447" 
d="M422 148q0 -70 -50.5 -115t-128.5 -45q-141 0 -217 111l101 83q49 -64 118 -64q41 0 41 32q0 26 -42 46l-84 40q-110 52 -110 157q0 69 50.5 114.5t124.5 45.5q107 0 172 -88l-94 -91q-41 49 -83 49q-36 0 -36 -29q0 -20 31 -35l83 -40q66 -32 95 -70.5t29 -100.5z
M146 -129q0 37 24.5 57.5t63.5 20.5t63.5 -20.5t24.5 -57.5t-24.5 -57.5t-63.5 -20.5t-63.5 20.5t-24.5 57.5z" />
    <glyph glyph-name="Tdotbelow" unicode="&#x1e6c;" horiz-adv-x="606" 
d="M380 579v-579h-153v579h-207v141h566v-141h-206zM218 -129q0 37 24.5 57.5t63.5 20.5t63.5 -20.5t24.5 -57.5t-24.5 -57.5t-63.5 -20.5t-63.5 20.5t-24.5 57.5z" />
    <glyph glyph-name="tdotbelow" unicode="&#x1e6d;" horiz-adv-x="358" 
d="M349 541v-132h-97v-409h-146v409h-97v132h97v110l146 20v-130h97zM86 -129q0 37 24.5 57.5t63.5 20.5t63.5 -20.5t24.5 -57.5t-24.5 -57.5t-63.5 -20.5t-63.5 20.5t-24.5 57.5z" />
    <glyph glyph-name="Wgrave" unicode="&#x1e80;" horiz-adv-x="1059" 
d="M769 250l120 470h163l-210 -720h-163l-151 501l-156 -501h-166l-199 720h174l118 -470l141 470h185zM550 882l50 -124h-115l-104 124h169z" />
    <glyph glyph-name="wgrave" unicode="&#x1e81;" horiz-adv-x="853" 
d="M693 541h162l-170 -541h-156l-107 334l-105 -334h-161l-158 541h169l77 -336l103 336h165l102 -336zM434 720l60 -141h-115l-104 141h159z" />
    <glyph glyph-name="Wacute" unicode="&#x1e82;" horiz-adv-x="1059" 
d="M769 250l120 470h163l-210 -720h-163l-151 501l-156 -501h-166l-199 720h174l118 -470l141 470h185zM461 758l50 124h169l-104 -124h-115z" />
    <glyph glyph-name="wacute" unicode="&#x1e83;" horiz-adv-x="853" 
d="M693 541h162l-170 -541h-156l-107 334l-105 -334h-161l-158 541h169l77 -336l103 336h165l102 -336zM355 579l60 141h159l-104 -141h-115z" />
    <glyph glyph-name="Wdieresis" unicode="&#x1e84;" horiz-adv-x="1059" 
d="M769 250l120 470h163l-210 -720h-163l-151 501l-156 -501h-166l-199 720h174l118 -470l141 470h185zM351 822q0 32 22.5 49.5t57.5 17.5q34 0 56.5 -17.5t22.5 -49.5q0 -33 -22 -50.5t-57 -17.5t-57.5 17.5t-22.5 50.5zM546 822q0 32 22.5 49.5t57.5 17.5t57.5 -17.5
t22.5 -49.5t-22.5 -50t-57.5 -18t-57.5 17.5t-22.5 50.5z" />
    <glyph glyph-name="wdieresis" unicode="&#x1e85;" horiz-adv-x="853" 
d="M693 541h162l-170 -541h-156l-107 334l-105 -334h-161l-158 541h169l77 -336l103 336h165l102 -336zM260 652q0 34 20 54t54 20q33 0 53 -20t20 -54q0 -33 -20 -53t-53 -20q-34 0 -54 20t-20 53zM443 652q0 34 20 54t54 20q33 0 53 -20t20 -54q0 -33 -20 -53t-53 -20
q-34 0 -54 20t-20 53z" />
    <glyph glyph-name="Zdotbelow" unicode="&#x1e92;" horiz-adv-x="670" 
d="M55 579v141h571v-132l-376 -447h396v-141h-618v117l387 462h-360zM250 -129q0 37 24.5 57.5t63.5 20.5t63.5 -20.5t24.5 -57.5t-24.5 -57.5t-63.5 -20.5t-63.5 20.5t-24.5 57.5z" />
    <glyph glyph-name="zdotbelow" unicode="&#x1e93;" horiz-adv-x="534" 
d="M38 409v132h461v-100l-252 -309h267v-132h-495v85l264 324h-245zM177 -129q0 37 24.5 57.5t63.5 20.5t63.5 -20.5t24.5 -57.5t-24.5 -57.5t-63.5 -20.5t-63.5 20.5t-24.5 57.5z" />
    <glyph glyph-name="Edotbelow" unicode="&#x1eb8;" horiz-adv-x="552" 
d="M68 0v720h431v-141h-278v-132h267v-141h-267v-165h289v-141h-442zM193 -129q0 37 24.5 57.5t63.5 20.5t63.5 -20.5t24.5 -57.5t-24.5 -57.5t-63.5 -20.5t-63.5 20.5t-24.5 57.5z" />
    <glyph glyph-name="edotbelow" unicode="&#x1eb9;" horiz-adv-x="598" 
d="M185 319h230q-19 101 -116 101q-41 0 -73.5 -26.5t-40.5 -74.5zM561 226h-378q6 -45 42.5 -75t85.5 -30q64 0 97 48l142 -15q-21 -77 -84 -121.5t-155 -44.5q-124 0 -199 77t-75 205q0 124 78 203.5t186 79.5q120 0 191.5 -79.5t71.5 -201.5q0 -26 -3 -46zM220 -129
q0 37 24.5 57.5t63.5 20.5t63.5 -20.5t24.5 -57.5t-24.5 -57.5t-63.5 -20.5t-63.5 20.5t-24.5 57.5z" />
    <glyph glyph-name="Etilde" unicode="&#x1ebc;" horiz-adv-x="552" 
d="M68 0v720h431v-141h-278v-132h267v-141h-267v-165h289v-141h-442zM273 771q-47 17 -64 17q-23 0 -26 -38l-87 13q2 62 33.5 98t80.5 36q18 0 79 -21q44 -16 64 -16q23 0 27 37l86 -9q-2 -63 -33.5 -100t-80.5 -37q-25 0 -79 20z" />
    <glyph glyph-name="etilde" unicode="&#x1ebd;" horiz-adv-x="598" 
d="M185 319h230q-19 101 -116 101q-41 0 -73.5 -26.5t-40.5 -74.5zM561 226h-378q6 -45 42.5 -75t85.5 -30q64 0 97 48l142 -15q-21 -77 -84 -121.5t-155 -44.5q-124 0 -199 77t-75 205q0 124 78 203.5t186 79.5q120 0 191.5 -79.5t71.5 -201.5q0 -26 -3 -46zM299 596
q-47 17 -64 17q-23 0 -26 -38l-87 13q2 62 33.5 98t80.5 36q18 0 79 -21q44 -16 64 -16q23 0 27 37l86 -9q-2 -63 -33.5 -100t-80.5 -37q-25 0 -79 20z" />
    <glyph glyph-name="Idotbelow" unicode="&#x1eca;" horiz-adv-x="289" 
d="M221 720v-720h-153v720h153zM56 -129q0 37 24.5 57.5t63.5 20.5t63.5 -20.5t24.5 -57.5t-24.5 -57.5t-63.5 -20.5t-63.5 20.5t-24.5 57.5z" />
    <glyph glyph-name="idotbelow" unicode="&#x1ecb;" horiz-adv-x="280" 
d="M50 -129q0 37 24.5 57.5t63.5 20.5t63.5 -20.5t24.5 -57.5t-24.5 -57.5t-63.5 -20.5t-63.5 20.5t-24.5 57.5zM213 541v-541h-146v541h146zM52 652q0 37 24.5 57.5t63.5 20.5t63.5 -20.5t24.5 -57.5t-24.5 -57.5t-63.5 -20.5t-63.5 20.5t-24.5 57.5z" />
    <glyph glyph-name="Odotbelow" unicode="&#x1ecc;" horiz-adv-x="822" 
d="M36 360q0 160 107.5 266t267.5 106t267.5 -106t107.5 -266q0 -154 -108.5 -263t-266.5 -109q-160 0 -267.5 106t-107.5 266zM200 360q0 -95 60.5 -159t150.5 -64q89 0 150 66t61 157q0 95 -60.5 159t-150.5 64t-150.5 -64.5t-60.5 -158.5zM323 -129q0 37 24.5 57.5
t63.5 20.5t63.5 -20.5t24.5 -57.5t-24.5 -57.5t-63.5 -20.5t-63.5 20.5t-24.5 57.5z" />
    <glyph glyph-name="odotbelow" unicode="&#x1ecd;" horiz-adv-x="640" 
d="M34 270q0 122 82.5 202.5t204.5 80.5q121 0 203.5 -80.5t82.5 -202.5q0 -117 -83 -199.5t-203 -82.5q-122 0 -204.5 80t-82.5 202zM181 270q0 -62 39.5 -104t99.5 -42q59 0 99.5 43.5t40.5 102.5q0 63 -40 105t-100 42t-99.5 -42t-39.5 -105zM230 -129q0 37 24.5 57.5
t63.5 20.5t63.5 -20.5t24.5 -57.5t-24.5 -57.5t-63.5 -20.5t-63.5 20.5t-24.5 57.5z" />
    <glyph glyph-name="Udotbelow" unicode="&#x1ee4;" horiz-adv-x="700" 
d="M495 720h143v-446q0 -130 -76 -208t-212 -78q-130 0 -209 79.5t-79 210.5v442h153v-433q0 -69 38.5 -109.5t102.5 -40.5q65 0 102 39t37 106v438zM259 -129q0 37 24.5 57.5t63.5 20.5t63.5 -20.5t24.5 -57.5t-24.5 -57.5t-63.5 -20.5t-63.5 20.5t-24.5 57.5z" />
    <glyph glyph-name="udotbelow" unicode="&#x1ee5;" horiz-adv-x="591" 
d="M204 541v-302q0 -39 4 -59q12 -57 77 -57q74 0 90 66q6 24 6 61v291h146v-541h-146v88q-58 -100 -147 -100q-68 0 -109.5 34.5t-56.5 89.5q-10 36 -10 121v308h146zM142 -129q0 37 24.5 57.5t63.5 20.5t63.5 -20.5t24.5 -57.5t-24.5 -57.5t-63.5 -20.5t-63.5 20.5
t-24.5 57.5z" />
    <glyph glyph-name="Ygrave" unicode="&#x1ef2;" horiz-adv-x="655" 
d="M330 456l152 264h168l-248 -418v-302h-153v302l-244 418h172zM347 882l50 -124h-115l-104 124h169z" />
    <glyph glyph-name="ygrave" unicode="&#x1ef3;" horiz-adv-x="574" 
d="M413 541h163l-298 -710h-163l92 198l-209 512h166l126 -326zM297 720l60 -141h-115l-104 141h159z" />
    <glyph glyph-name="Ytilde" unicode="&#x1ef8;" horiz-adv-x="655" 
d="M330 456l152 264h168l-248 -418v-302h-153v302l-244 418h172zM324 771q-47 17 -64 17q-23 0 -26 -38l-87 13q2 62 33.5 98t80.5 36q18 0 79 -21q44 -16 64 -16q23 0 27 37l86 -9q-2 -63 -33.5 -100t-80.5 -37q-25 0 -79 20z" />
    <glyph glyph-name="ytilde" unicode="&#x1ef9;" horiz-adv-x="574" 
d="M413 541h163l-298 -710h-163l92 198l-209 512h166l126 -326zM280 596q-47 17 -64 17q-23 0 -26 -38l-87 13q2 62 33.5 98t80.5 36q18 0 79 -21q44 -16 64 -16q23 0 27 37l86 -9q-2 -63 -33.5 -100t-80.5 -37q-25 0 -79 20z" />
    <glyph glyph-name="endash" unicode="&#x2013;" horiz-adv-x="500" 
d="M500 319v-96h-500v96h500z" />
    <glyph glyph-name="emdash" unicode="&#x2014;" horiz-adv-x="1000" 
d="M1000 319v-96h-1000v96h1000z" />
    <glyph glyph-name="quoteleft" unicode="&#x2018;" horiz-adv-x="265" 
d="M229 720l-33 -288h-160l104 288h89z" />
    <glyph glyph-name="quoteright" unicode="&#x2019;" horiz-adv-x="265" 
d="M36 432l32 288h161l-104 -288h-89z" />
    <glyph glyph-name="quotesinglbase" unicode="&#x201a;" horiz-adv-x="265" 
d="M36 -151l32 309h161l-104 -309h-89z" />
    <glyph glyph-name="quotereversed" unicode="&#x201b;" horiz-adv-x="265" 
d="M197 720l32 -288h-89l-104 288h161z" />
    <glyph glyph-name="quotedblleft" unicode="&#x201c;" horiz-adv-x="464" 
d="M428 720l-33 -288h-160l104 288h89zM229 720l-33 -288h-160l104 288h89z" />
    <glyph glyph-name="quotedblright" unicode="&#x201d;" horiz-adv-x="464" 
d="M36 432l32 288h161l-104 -288h-89zM235 432l32 288h161l-104 -288h-89z" />
    <glyph glyph-name="quotedblbase" unicode="&#x201e;" horiz-adv-x="464" 
d="M36 -151l32 309h161l-104 -309h-89zM235 -151l32 309h161l-104 -309h-89z" />
    <glyph glyph-name="dagger" unicode="&#x2020;" horiz-adv-x="450" 
d="M424 425h-140v-594h-118v594h-140v116h140v179h118v-179h140v-116z" />
    <glyph glyph-name="daggerdbl" unicode="&#x2021;" horiz-adv-x="450" 
d="M284 116h140v-116h-140v-169h-118v169h-140v116h140v309h-140v116h140v179h118v-179h140v-116h-140v-309z" />
    <glyph glyph-name="bullet" unicode="&#x2022;" horiz-adv-x="500" 
d="M81 376q0 77 48 128t121 51t121 -51t48 -128q0 -74 -48.5 -126t-120.5 -52q-73 0 -121 50.5t-48 127.5z" />
    <glyph glyph-name="ellipsis" unicode="&#x2026;" horiz-adv-x="795" 
d="M41 80q0 41 25.5 66t66.5 25t66 -25.5t25 -65.5q0 -41 -25 -66.5t-66 -25.5t-66.5 25.5t-25.5 66.5zM306 80q0 41 25.5 66t66.5 25q40 0 65.5 -25.5t25.5 -65.5q0 -41 -25 -66.5t-66 -25.5t-66.5 25.5t-25.5 66.5zM571 80q0 41 25.5 66t66.5 25t66 -25.5t25 -65.5
q0 -41 -25 -66.5t-66 -25.5t-66.5 25.5t-25.5 66.5z" />
    <glyph glyph-name="perthousand" unicode="&#x2030;" horiz-adv-x="1424" 
d="M36 539q0 83 56.5 138t139.5 55q82 0 138 -55t56 -138q0 -79 -56.5 -135t-137.5 -56q-83 0 -139.5 55t-56.5 136zM153 539q0 -34 22.5 -57.5t56.5 -23.5q32 0 55 24.5t23 56.5q0 36 -22.5 60t-55.5 24q-34 0 -56.5 -24t-22.5 -60zM572 179q0 83 56.5 138t139.5 55
q82 0 138 -55t56 -138q0 -79 -56.5 -135t-137.5 -56q-83 0 -139.5 55t-56.5 136zM689 179q0 -34 22.5 -57.5t56.5 -23.5q32 0 55 24.5t23 56.5q0 36 -22.5 60t-55.5 24q-34 0 -56.5 -24t-22.5 -60zM288 0l298 720h125l-296 -720h-127zM997 179q0 83 56.5 138t139.5 55
q82 0 138 -55t56 -138q0 -79 -56.5 -135t-137.5 -56q-83 0 -139.5 55t-56.5 136zM1114 179q0 -34 22.5 -57.5t56.5 -23.5q32 0 55 24.5t23 56.5q0 36 -22.5 60t-55.5 24q-34 0 -56.5 -24t-22.5 -60z" />
    <glyph glyph-name="guilsinglleft" unicode="&#x2039;" horiz-adv-x="272" 
d="M30 349l204 159v-152l-111 -85l111 -85v-152l-204 159v156z" />
    <glyph glyph-name="guilsinglright" unicode="&#x203a;" horiz-adv-x="272" 
d="M38 508l204 -159v-156l-204 -159v152l111 85l-111 85v152z" />
    <glyph glyph-name="fraction" unicode="&#x2044;" horiz-adv-x="330" 
d="M-46 0l298 720h124l-296 -720h-126z" />
    <glyph glyph-name="zerosuperior" unicode="&#x2070;" horiz-adv-x="433" 
d="M279 450q0 82 -17.5 124t-47.5 42q-29 0 -45.5 -42t-16.5 -124q0 -165 62 -165q30 0 47.5 41.5t17.5 123.5zM402 450q0 -161 -74 -233q-46 -46 -114 -46q-66 0 -114 46q-73 70 -73 233t73 233q47 46 114 46t115 -46q73 -73 73 -233z" />
    <glyph glyph-name="foursuperior" unicode="&#x2074;" horiz-adv-x="434" 
d="M244 579l-118 -169h118v169zM413 410v-103h-52v-127h-117v127h-223v115l219 298h121v-310h52z" />
    <glyph glyph-name="fivesuperior" unicode="&#x2075;" horiz-adv-x="420" 
d="M240 539q63 0 109.5 -47.5t46.5 -127.5t-54.5 -136.5t-136.5 -56.5q-65 0 -114 34t-70 88l96 51q32 -59 86 -59q33 0 54 21.5t21 54.5q0 35 -18.5 55t-50.5 20q-41 0 -71 -35l-101 23l27 296h299v-111h-209l-12 -115q39 45 98 45z" />
    <glyph glyph-name="sixsuperior" unicode="&#x2076;" horiz-adv-x="433" 
d="M164 351q0 -30 17.5 -49.5t45.5 -19.5q29 0 46.5 18.5t17.5 50.5q0 30 -18 48t-46 18q-27 0 -45 -18.5t-18 -47.5zM235 729q49 0 83.5 -16.5t70.5 -54.5l-71 -84q-44 44 -83 44q-37 0 -57 -30q-26 -42 -26 -129q32 69 103 69q60 0 106.5 -49t46.5 -124
q0 -77 -50.5 -130.5t-127.5 -53.5q-84 0 -138 58q-58 64 -58 204q0 159 69 235q55 61 132 61z" />
    <glyph glyph-name="sevensuperior" unicode="&#x2077;" horiz-adv-x="414" 
d="M221 181h-136q10 112 65.5 223t143.5 205h-273v111h378v-99q-160 -191 -178 -440z" />
    <glyph glyph-name="eightsuperior" unicode="&#x2078;" horiz-adv-x="425" 
d="M211 171q-78 0 -129 46.5t-51 121.5q0 84 74 127q-57 45 -57 105q0 67 47 112.5t116 45.5t116 -45.5t47 -112.5q0 -70 -57 -105q34 -17 54.5 -52t20.5 -75q0 -75 -51.5 -121.5t-129.5 -46.5zM144 346q0 -28 18.5 -47t48.5 -19t49 19.5t19 46.5t-19.5 47t-48.5 20
q-28 0 -47.5 -20t-19.5 -47zM154 567q0 -22 16.5 -38t40.5 -16t40 16t16 38q0 23 -15.5 39t-40.5 16t-41 -16t-16 -39z" />
    <glyph glyph-name="ninesuperior" unicode="&#x2079;" horiz-adv-x="433" 
d="M266 549q0 30 -17.5 49.5t-45.5 19.5q-29 0 -46.5 -18.5t-17.5 -50.5q0 -30 18 -48t46 -18q27 0 45 18.5t18 47.5zM195 171q-49 0 -83.5 16.5t-70.5 54.5l71 84q44 -44 83 -44q37 0 57 30q26 42 26 129q-32 -69 -103 -69q-60 0 -106.5 49t-46.5 124q0 77 50.5 130.5
t127.5 53.5q84 0 138 -58q58 -64 58 -204q0 -159 -69 -235q-55 -61 -132 -61z" />
    <glyph glyph-name="plussuperior" unicode="&#x207a;" horiz-adv-x="413" 
d="M253 498h122v-97h-122v-122h-96v122h-123v97h123v123h96v-123z" />
    <glyph glyph-name="minussuperior" unicode="&#x207b;" horiz-adv-x="413" 
d="M34 498h341v-97h-341v97z" />
    <glyph glyph-name="equalsuperior" unicode="&#x207c;" horiz-adv-x="413" 
d="M34 572h341v-98h-341v98zM34 425h341v-98h-341v98z" />
    <glyph glyph-name="parenleftsuperior" unicode="&#x207d;" horiz-adv-x="283" 
d="M59 390q0 178 113 330h98q-102 -157 -102 -330q0 -178 102 -335h-98q-113 154 -113 335z" />
    <glyph glyph-name="parenrightsuperior" unicode="&#x207e;" horiz-adv-x="285" 
d="M227 390q0 -183 -113 -335h-99q103 154 103 335q0 176 -103 330h99q113 -149 113 -330z" />
    <glyph glyph-name="nsuperior" unicode="&#x207f;" horiz-adv-x="455" 
d="M276 597q49 0 81 -25.5t42 -67.5q6 -24 6 -75v-249h-117v225q0 21 -2 41q-3 19 -17.5 30.5t-35.5 11.5q-47 0 -61 -44q-5 -15 -5 -44v-220h-117v408h117v-52q39 61 109 61z" />
    <glyph glyph-name="zeroinferior" unicode="&#x2080;" horiz-adv-x="433" 
d="M279 100q0 82 -17.5 124t-47.5 42q-29 0 -45.5 -42t-16.5 -124q0 -165 62 -165q30 0 47.5 41.5t17.5 123.5zM402 100q0 -161 -74 -233q-46 -46 -114 -46q-66 0 -114 46q-73 70 -73 233t73 233q47 46 114 46t115 -46q73 -73 73 -233z" />
    <glyph glyph-name="oneinferior" unicode="&#x2081;" horiz-adv-x="325" 
d="M19 192v94h17q104 0 145 84h86v-540h-122v362h-126z" />
    <glyph glyph-name="twoinferior" unicode="&#x2082;" horiz-adv-x="406" 
d="M375 -58v-112h-357v28q0 50 12 86q16 47 82 103l82 69q33 27 44 47t11 43q0 26 -18 41.5t-44 15.5q-50 0 -76 -62l-97 42q18 58 67.5 97t112.5 39q80 0 127 -49t47 -123q0 -53 -24.5 -91t-87.5 -86l-68 -52q-27 -21 -33 -36h220z" />
    <glyph glyph-name="threeinferior" unicode="&#x2083;" horiz-adv-x="409" 
d="M198 -64q27 0 44.5 16t17.5 43q0 43 -40 61q-15 7 -54 7h-34v102h26q37 0 58 8q30 10 30 45q0 20 -14 34t-35 14q-39 0 -71 -38l-82 65q63 86 155 86q71 0 115 -43.5t44 -110.5q0 -79 -64 -109q38 -14 61.5 -49t23.5 -81q0 -78 -48.5 -121.5t-123.5 -43.5
q-122 0 -183 101l89 65q35 -51 85 -51z" />
    <glyph glyph-name="fourinferior" unicode="&#x2084;" horiz-adv-x="434" 
d="M244 229l-118 -169h118v169zM413 60v-103h-52v-127h-117v127h-223v115l219 298h121v-310h52z" />
    <glyph glyph-name="fiveinferior" unicode="&#x2085;" horiz-adv-x="420" 
d="M240 189q63 0 109.5 -47.5t46.5 -127.5t-54.5 -136.5t-136.5 -56.5q-65 0 -114 34t-70 88l96 51q32 -59 86 -59q33 0 54 21.5t21 54.5q0 35 -18.5 55t-50.5 20q-41 0 -71 -35l-101 23l27 296h299v-111h-209l-12 -115q39 45 98 45z" />
    <glyph glyph-name="sixinferior" unicode="&#x2086;" horiz-adv-x="433" 
d="M164 1q0 -30 17.5 -49.5t45.5 -19.5q29 0 46.5 18.5t17.5 50.5q0 30 -18 48t-46 18q-27 0 -45 -18.5t-18 -47.5zM235 379q49 0 83.5 -16.5t70.5 -54.5l-71 -84q-44 44 -83 44q-37 0 -57 -30q-26 -42 -26 -129q32 69 103 69q60 0 106.5 -49t46.5 -124q0 -77 -50.5 -130.5
t-127.5 -53.5q-84 0 -138 58q-58 64 -58 204q0 159 69 235q55 61 132 61z" />
    <glyph glyph-name="seveninferior" unicode="&#x2087;" horiz-adv-x="414" 
d="M221 -169h-136q10 112 65.5 223t143.5 205h-273v111h378v-99q-160 -191 -178 -440z" />
    <glyph glyph-name="eightinferior" unicode="&#x2088;" horiz-adv-x="425" 
d="M211 -179q-78 0 -129 46.5t-51 121.5q0 84 74 127q-57 45 -57 105q0 67 47 112.5t116 45.5t116 -45.5t47 -112.5q0 -70 -57 -105q34 -17 54.5 -52t20.5 -75q0 -75 -51.5 -121.5t-129.5 -46.5zM144 -4q0 -28 18.5 -47t48.5 -19t49 19.5t19 46.5t-19.5 47t-48.5 20
q-28 0 -47.5 -20t-19.5 -47zM154 217q0 -22 16.5 -38t40.5 -16t40 16t16 38q0 23 -15.5 39t-40.5 16t-41 -16t-16 -39z" />
    <glyph glyph-name="nineinferior" unicode="&#x2089;" horiz-adv-x="433" 
d="M266 199q0 30 -17.5 49.5t-45.5 19.5q-29 0 -46.5 -18.5t-17.5 -50.5q0 -30 18 -48t46 -18q27 0 45 18.5t18 47.5zM195 -179q-49 0 -83.5 16.5t-70.5 54.5l71 84q44 -44 83 -44q37 0 57 30q26 42 26 129q-32 -69 -103 -69q-60 0 -106.5 49t-46.5 124q0 77 50.5 130.5
t127.5 53.5q84 0 138 -58q58 -64 58 -204q0 -159 -69 -235q-55 -61 -132 -61z" />
    <glyph glyph-name="parenleftinferior" unicode="&#x208d;" horiz-adv-x="283" 
d="M59 40q0 178 113 330h98q-102 -157 -102 -330q0 -178 102 -335h-98q-113 154 -113 335z" />
    <glyph glyph-name="parenrightinferior" unicode="&#x208e;" horiz-adv-x="285" 
d="M227 40q0 -183 -113 -335h-99q103 154 103 335q0 176 -103 330h99q113 -149 113 -330z" />
    <glyph glyph-name="franc" unicode="&#x20a3;" horiz-adv-x="556" 
d="M100 0v246h-93v75h93v75h-93v75h93v249h421v-141h-268v-108h236v-75h-236v-75h236v-75h-236v-246h-153z" />
    <glyph glyph-name="lira" unicode="&#x20a4;" horiz-adv-x="631" 
d="M174 212q0 16 -5 34h-141v75h104q-16 29 -37 75h-67v75h50q0 3 -0.5 9t-0.5 9q0 103 74 173t183 70q155 0 232 -125l-124 -87q-41 63 -106 63q-41 0 -68.5 -27t-27.5 -70q0 -10 1 -15h214v-75h-200q13 -37 33 -75h167v-75h-144q2 -14 2 -19q0 -30 -15 -60q5 -1 13 -3
l16 -5l70 -19q42 -12 53 -12q31 0 31 45l130 -6q0 -90 -41 -134.5t-106 -44.5q-40 0 -109 18l-70 19q-52 13 -64 13q-37 0 -37 -55l-122 4q0 78 26 119t75 59q11 18 11 47z" />
    <glyph glyph-name="Euro" unicode="&#x20ac;" horiz-adv-x="845" 
d="M31 398v75h101q35 116 133.5 187.5t225.5 71.5q232 0 319 -190l-141 -77q-65 118 -178 118q-60 0 -108 -29.5t-75 -80.5h243v-75h-268q-2 -13 -2 -38q0 -13 2 -37h268v-75h-244q27 -51 75.5 -81t108.5 -30q128 0 183 129l146 -57q-32 -103 -116.5 -162t-212.5 -59
q-129 0 -226.5 71.5t-132.5 188.5h-101v75h86q-1 12 -1 37q0 16 2 38h-87z" />
    <glyph glyph-name="uni2113" unicode="&#x2113;" horiz-adv-x="463" 
d="M309 536q0 29 -12 44.5t-33 15.5q-50 0 -50 -64v-171l32 40q37 46 50 75.5t13 59.5zM346 129l5 -134q-49 -7 -68 -7q-103 0 -159 54t-56 158v326q0 93 54 149.5t144 56.5q78 0 127.5 -54t49.5 -135q0 -100 -128 -233l-101 -105v-10q0 -33 21.5 -52t58.5 -19q30 0 52 5z
" />
    <glyph glyph-name="trademark" unicode="&#x2122;" horiz-adv-x="639" 
d="M177 647v-235h-77v235h-85v73h246v-73h-84zM376 720l71 -126l72 126h89v-308h-79v180l-58 -101h-55l-55 100v-179h-73v308h88z" />
    <glyph glyph-name="Omega" unicode="&#x2126;" horiz-adv-x="729" 
d="M204 408q0 -66 34 -109t84 -63v-236h-273v141h136v15q-145 95 -145 255q0 138 92.5 229.5t231.5 91.5q140 0 232.5 -91t92.5 -229q0 -63 -20 -113t-50.5 -81.5t-76.5 -59.5v-17h136v-141h-273v236q48 18 84 63.5t36 108.5q0 75 -45 125t-116 50q-70 0 -115 -50t-45 -125z
" />
    <glyph glyph-name="estimated" unicode="&#x212e;" horiz-adv-x="769" 
d="M214 429h345q-31 154 -174 154q-64 0 -111 -40.5t-60 -113.5zM728 300h-516q10 -72 62.5 -117.5t127.5 -45.5q62 0 96.5 24.5t58.5 81.5l156 -39q-34 -100 -111.5 -158t-197.5 -58q-165 0 -265 101t-100 271q0 164 102 269t247 105q158 0 252 -105.5t94 -266.5
q0 -30 -6 -62z" />
    <glyph glyph-name="onethird" unicode="&#x2153;" horiz-adv-x="1064" 
d="M19 542v94h17q104 0 145 84h86v-540h-122v362h-126zM279 0l298 720h124l-296 -720h-126zM853 106q27 0 44.5 16t17.5 43q0 43 -40 61q-15 7 -54 7h-34v102h26q37 0 58 8q30 10 30 45q0 20 -13.5 34t-35.5 14q-39 0 -71 -38l-82 65q63 86 155 86q71 0 115 -43.5t44 -110.5
q0 -79 -64 -109q38 -14 61.5 -49t23.5 -81q0 -78 -48.5 -121.5t-123.5 -43.5q-122 0 -183 101l89 65q35 -51 85 -51z" />
    <glyph glyph-name="twothirds" unicode="&#x2154;" horiz-adv-x="1145" 
d="M375 292v-112h-357v28q0 50 12 86q16 47 82 103l82 69q33 27 44 47t11 43q0 26 -18 41.5t-44 15.5q-50 0 -76 -62l-97 42q18 58 67.5 97t112.5 39q80 0 127 -49t47 -123q0 -53 -24.5 -91t-87.5 -86l-68 -52q-27 -21 -33 -36h220zM360 0l298 720h124l-296 -720h-126z
M934 106q27 0 44.5 16t17.5 43q0 43 -40 61q-15 7 -54 7h-34v102h26q37 0 58 8q30 10 30 45q0 20 -14 34t-35 14q-39 0 -71 -38l-82 65q63 86 155 86q71 0 115 -43.5t44 -110.5q0 -79 -64 -109q38 -14 61.5 -49t23.5 -81q0 -78 -48.5 -121.5t-123.5 -43.5q-122 0 -183 101
l89 65q35 -51 85 -51z" />
    <glyph glyph-name="uni2160" unicode="&#x2160;" horiz-adv-x="289" 
d="M221 720v-720h-153v720h153z" />
    <glyph glyph-name="uni2161" unicode="&#x2161;" horiz-adv-x="578" 
d="M221 720v-720h-153v720h153zM510 720v-720h-153v720h153z" />
    <glyph glyph-name="uni2162" unicode="&#x2162;" horiz-adv-x="867" 
d="M221 720v-720h-153v720h153zM510 720v-720h-153v720h153zM799 720v-720h-153v720h153z" />
    <glyph glyph-name="uni2163" unicode="&#x2163;" horiz-adv-x="970" 
d="M221 720v-720h-153v720h153zM630 216l175 504h159l-257 -720h-166l-246 720h171z" />
    <glyph glyph-name="uni2164" unicode="&#x2164;" horiz-adv-x="681" 
d="M341 216l175 504h159l-257 -720h-166l-246 720h171z" />
    <glyph glyph-name="uni2165" unicode="&#x2165;" horiz-adv-x="970" 
d="M341 216l175 504h159l-257 -720h-166l-246 720h171zM902 720v-720h-153v720h153z" />
    <glyph glyph-name="uni2166" unicode="&#x2166;" horiz-adv-x="1259" 
d="M341 216l175 504h159l-257 -720h-166l-246 720h171zM902 720v-720h-153v720h153zM1191 720v-720h-153v720h153z" />
    <glyph glyph-name="uni2167" unicode="&#x2167;" horiz-adv-x="1548" 
d="M341 216l175 504h159l-257 -720h-166l-246 720h171zM902 720v-720h-153v720h153zM1191 720v-720h-153v720h153zM1480 720v-720h-153v720h153z" />
    <glyph glyph-name="uni2168" unicode="&#x2168;" horiz-adv-x="987" 
d="M221 720v-720h-153v720h153zM775 720h179l-220 -350l240 -370h-194l-152 253l-138 -253h-188l236 381l-224 339h193l138 -230z" />
    <glyph glyph-name="uni2169" unicode="&#x2169;" horiz-adv-x="698" 
d="M486 720h179l-220 -350l240 -370h-194l-152 253l-138 -253h-188l236 381l-224 339h193l138 -230z" />
    <glyph glyph-name="uni216A" unicode="&#x216a;" horiz-adv-x="987" 
d="M486 720h179l-220 -350l240 -370h-194l-152 253l-138 -253h-188l236 381l-224 339h193l138 -230zM919 720v-720h-153v720h153z" />
    <glyph glyph-name="uni216B" unicode="&#x216b;" horiz-adv-x="1276" 
d="M486 720h179l-220 -350l240 -370h-194l-152 253l-138 -253h-188l236 381l-224 339h193l138 -230zM919 720v-720h-153v720h153zM1208 720v-720h-153v720h153z" />
    <glyph glyph-name="uni216C" unicode="&#x216c;" horiz-adv-x="514" 
d="M68 0v720h153v-579h269v-141h-422z" />
    <glyph glyph-name="uni216D" unicode="&#x216d;" horiz-adv-x="758" 
d="M411 -12q-159 0 -267 106t-108 266t108.5 266t266.5 106q232 0 319 -190l-141 -77q-65 118 -178 118q-90 0 -150 -64.5t-60 -158.5q0 -95 60 -159t150 -64q128 0 183 129l146 -57q-32 -103 -116.5 -162t-212.5 -59z" />
    <glyph glyph-name="uni216E" unicode="&#x216e;" horiz-adv-x="711" 
d="M68 0v720h245q163 0 262.5 -98t99.5 -262q0 -157 -101.5 -258.5t-266.5 -101.5h-239zM221 579v-438h78q98 0 156.5 61t58.5 158q0 100 -57 159.5t-152 59.5h-84z" />
    <glyph glyph-name="uni216F" unicode="&#x216f;" horiz-adv-x="887" 
d="M260 720l183 -326l185 326h191v-720h-153v499l-173 -305h-113l-169 306v-500h-143v720h192z" />
    <glyph glyph-name="uni2170" unicode="&#x2170;" horiz-adv-x="274" 
d="M210 541v-541h-146v541h146z" />
    <glyph glyph-name="uni2171" unicode="&#x2171;" horiz-adv-x="548" 
d="M210 541v-541h-146v541h146zM484 541v-541h-146v541h146z" />
    <glyph glyph-name="uni2172" unicode="&#x2172;" horiz-adv-x="822" 
d="M210 541v-541h-146v541h146zM484 541v-541h-146v541h146zM758 541v-541h-146v541h146z" />
    <glyph glyph-name="uni2173" unicode="&#x2173;" horiz-adv-x="837" 
d="M210 541v-541h-146v541h146zM679 541h160l-208 -541h-158l-201 541h164l120 -348z" />
    <glyph glyph-name="uni2174" unicode="&#x2174;" horiz-adv-x="563" 
d="M405 541h160l-208 -541h-158l-201 541h164l120 -348z" />
    <glyph glyph-name="uni2175" unicode="&#x2175;" horiz-adv-x="837" 
d="M405 541h160l-208 -541h-158l-201 541h164l120 -348zM773 541v-541h-146v541h146z" />
    <glyph glyph-name="uni2176" unicode="&#x2176;" horiz-adv-x="1111" 
d="M405 541h160l-208 -541h-158l-201 541h164l120 -348zM773 541v-541h-146v541h146zM1047 541v-541h-146v541h146z" />
    <glyph glyph-name="uni2177" unicode="&#x2177;" horiz-adv-x="1385" 
d="M405 541h160l-208 -541h-158l-201 541h164l120 -348zM773 541v-541h-146v541h146zM1047 541v-541h-146v541h146zM1321 541v-541h-146v541h146z" />
    <glyph glyph-name="uni2178" unicode="&#x2178;" horiz-adv-x="818" 
d="M210 541v-541h-146v541h146zM627 541h173l-159 -264l173 -277h-182l-97 168l-80 -168h-177l167 294l-157 247h184l82 -145z" />
    <glyph glyph-name="uni2179" unicode="&#x2179;" horiz-adv-x="544" 
d="M353 541h173l-159 -264l173 -277h-182l-97 168l-80 -168h-177l167 294l-157 247h184l82 -145z" />
    <glyph glyph-name="uni217B" unicode="&#x217b;" horiz-adv-x="1092" 
d="M353 541h173l-159 -264l173 -277h-182l-97 168l-80 -168h-177l167 294l-157 247h184l82 -145zM754 541v-541h-146v541h146zM1028 541v-541h-146v541h146z" />
    <glyph glyph-name="uni217C" unicode="&#x217c;" horiz-adv-x="274" 
d="M210 720v-720h-146v720h146z" />
    <glyph glyph-name="uni217D" unicode="&#x217d;" horiz-adv-x="584" 
d="M318 -12q-122 0 -203 80t-81 202t82.5 202.5t201.5 80.5q171 0 241 -146l-123 -68q-45 78 -117 78q-61 0 -99.5 -41.5t-38.5 -105.5q0 -62 38.5 -104t99.5 -42q82 0 117 87l133 -49q-25 -82 -88 -128t-163 -46z" />
    <glyph glyph-name="uni217E" unicode="&#x217e;" horiz-adv-x="649" 
d="M185 272q0 -63 37 -107.5t94 -44.5q58 0 93 39t35 113q0 65 -37 108t-93 43q-60 0 -94.5 -40.5t-34.5 -110.5zM34 272q0 124 71 202.5t174 78.5q106 0 160 -83v250h146v-720h-146v70q-59 -82 -167 -82q-99 0 -168.5 79.5t-69.5 204.5z" />
    <glyph glyph-name="uni217F" unicode="&#x217f;" horiz-adv-x="878" 
d="M820 345v-345h-146v309q0 34 -3 52q-12 58 -69 58q-29 0 -51 -18.5t-30 -46.5q-6 -22 -6 -61v-293h-146v309q0 34 -3 52q-12 58 -69 58q-29 0 -51 -18.5t-30 -46.5q-6 -22 -6 -61v-293h-146v541h146v-88q25 42 64 71t84 29q104 0 144 -107q20 44 61.5 75.5t95.5 31.5
q60 0 100 -31.5t53 -82.5q8 -31 8 -94z" />
    <glyph glyph-name="partialdiff" unicode="&#x2202;" horiz-adv-x="567" 
d="M370 228q0 45 -28 73.5t-71 28.5t-71.5 -28.5t-28.5 -74.5q0 -44 27.5 -73.5t72.5 -29.5q43 0 71 33t28 71zM256 732q105 0 173 -68q94 -96 94 -326q0 -189 -72 -272q-69 -78 -185 -78q-102 0 -170 71t-68 174q0 102 61 164.5t150 62.5q49 0 85 -26t56 -65q0 121 -39 179
q-31 48 -93 48q-63 0 -125 -46l-65 106q82 76 198 76z" />
    <glyph glyph-name="Delta" unicode="&#x2206;" horiz-adv-x="722" 
d="M716 0h-710l280 720h154zM358 517l-142 -376h285z" />
    <glyph glyph-name="product" unicode="&#x220f;" horiz-adv-x="730" 
d="M506 -169v748h-282v-748h-153v889h588v-889h-153z" />
    <glyph glyph-name="summation" unicode="&#x2211;" horiz-adv-x="575" 
d="M565 -169h-537v129l240 318l-229 318v123h514v-140h-321l214 -299l-233 -308h352v-141z" />
    <glyph glyph-name="minus" unicode="&#x2212;" 
d="M57 419h450v-118h-450v118z" />
    <glyph glyph-name="radical" unicode="&#x221a;" horiz-adv-x="696" 
d="M595 878h120l-381 -1047h-104l-210 450h137l121 -272z" />
    <glyph glyph-name="infinity" unicode="&#x221e;" 
d="M135 359q0 -18 9.5 -29.5t25.5 -11.5q28 0 53 30l-15 21q-22 30 -43 30q-13 0 -21.5 -11.5t-8.5 -28.5zM302 247l-22 27q-29 -39 -55 -54.5t-58 -15.5q-57 0 -96 42.5t-39 110.5t38 112t94 44q60 0 102 -48l16 -19q50 67 115 67q56 0 95.5 -41.5t39.5 -111.5
q0 -67 -36 -111.5t-98 -44.5t-96 43zM430 358q0 19 -10 30t-27 11q-26 0 -53 -29l17 -24q18 -27 41 -27q14 0 23 11.5t9 27.5z" />
    <glyph glyph-name="integral" unicode="&#x222b;" horiz-adv-x="370" 
d="M112 12v534q0 83 46.5 134.5t133.5 51.5q45 0 77 -8l-12 -131q-12 3 -41 3q-58 0 -58 -56v-535q0 -83 -46 -134.5t-133 -51.5q-46 0 -78 8l13 132q16 -4 41 -4q57 0 57 57z" />
    <glyph glyph-name="approxequal" unicode="&#x2248;" 
d="M154 369l-101 6q0 161 131 161q40 0 93 -16l62 -19q24 -7 36 -7q35 0 35 56l101 -6q0 -83 -37 -122t-94 -39q-40 0 -93 16l-62 19q-24 7 -36 7q-35 0 -35 -56zM154 169l-101 6q0 161 131 161q40 0 93 -16l62 -19q24 -7 36 -7q35 0 35 56l101 -6q0 -83 -37 -122t-94 -39
q-40 0 -93 16l-62 19q-24 7 -36 7q-35 0 -35 -56z" />
    <glyph glyph-name="notequal" unicode="&#x2260;" 
d="M324 319h183v-118h-251l-86 -147l-103 60l50 87h-60v118h129l48 82h-177v118h246l90 153l103 -60l-54 -93h65v-118h-134z" />
    <glyph glyph-name="lessequal" unicode="&#x2264;" 
d="M57 178h397l-397 197v69l450 223v-135l-272 -122l272 -120v-230h-450v118z" />
    <glyph glyph-name="greaterequal" unicode="&#x2265;" 
d="M110 178h397v-118h-450v230l272 120l-272 122v135l450 -223v-69z" />
    <glyph glyph-name="lozenge" unicode="&#x25ca;" horiz-adv-x="565" 
d="M198 0l-168 360l168 360h169l168 -360l-168 -360h-169zM394 360l-111 227l-109 -227l109 -227z" />
    <glyph glyph-name="commaaccent" unicode="&#xf6c3;" horiz-adv-x="500" 
d="M187 -191l-2 156h133l-59 -156h-72z" />
    <glyph glyph-name="dblgrave" unicode="&#xf6d6;" horiz-adv-x="500" 
d="M212 720l59 -146h-102l-104 146h147zM374 720l59 -146h-102l-104 146h147z" />
    <glyph glyph-name="asuperior" unicode="&#xf6e9;" horiz-adv-x="431" 
d="M264 357v14q-9 -10 -46 -22l-28 -8q-45 -14 -45 -44q0 -34 43 -34q33 0 54.5 24.5t21.5 69.5zM215 597q52 0 92 -18t57 -51q17 -34 17 -98v-136q0 -10 6.5 -16.5t15.5 -6.5q6 0 11 1v-98q-14 -3 -31 -3q-92 0 -111 74q-39 -74 -119 -74q-54 0 -89 32t-35 85q0 48 31 76
t96 41l87 17q21 4 21 27q0 19 -14 31t-40 12q-24 0 -39 -13t-17 -35l-118 9q6 62 52.5 103t126.5 41z" />
    <glyph glyph-name="bsuperior" unicode="&#xf6ea;" horiz-adv-x="503" 
d="M349 383q0 47 -25 77.5t-66 30.5q-40 0 -65 -28.5t-25 -79.5q0 -47 26 -76t65 -29q41 0 65.5 29t24.5 76zM470 383q0 -94 -54.5 -153t-131.5 -59q-68 0 -112 46v-37h-117v540h117v-182q47 59 117 59q78 0 129.5 -60t51.5 -154z" />
    <glyph glyph-name="dsuperior" unicode="&#xf6eb;" horiz-adv-x="503" 
d="M150 383q0 -47 24.5 -76t65.5 -29q39 0 65 29t26 76q0 51 -25 79.5t-65 28.5q-41 0 -66 -30.5t-25 -77.5zM29 383q0 94 51.5 154t129.5 60q70 0 117 -59v182h117v-540h-117v37q-44 -46 -112 -46q-77 0 -131.5 59t-54.5 153z" />
    <glyph glyph-name="esuperior" unicode="&#xf6ec;" horiz-adv-x="460" 
d="M149 420h160q-16 69 -81 69t-79 -69zM425 351h-279q7 -32 31.5 -52.5t60.5 -20.5q50 0 69 38l112 -15q-20 -60 -67 -95t-114 -35q-94 0 -151 58t-57 154q0 94 59 154t141 60q90 0 144 -60t54 -152q0 -15 -3 -34z" />
    <glyph glyph-name="isuperior" unicode="&#xf6ed;" horiz-adv-x="217" 
d="M166 588v-408h-117v408h117zM38 669q0 28 19.5 43t50.5 15t49.5 -15t18.5 -43q0 -29 -18.5 -44.5t-49.5 -15.5t-50.5 15.5t-19.5 44.5z" />
    <glyph glyph-name="lsuperior" unicode="&#xf6ee;" horiz-adv-x="217" 
d="M166 720v-540h-117v540h117z" />
    <glyph glyph-name="msuperior" unicode="&#xf6ef;" horiz-adv-x="669" 
d="M277 180v217q0 41 -4 54q-11 37 -45 37q-20 0 -35 -12.5t-20 -31.5q-5 -20 -5 -44v-220h-117v408h117v-52q45 61 104 61q80 0 107 -71q41 71 116 71q46 0 77 -24.5t41 -61.5q6 -20 6 -70v-261h-117v217q0 41 -4 54q-11 37 -45 37q-20 0 -35 -12.5t-20 -31.5
q-4 -16 -4 -44v-220h-117z" />
    <glyph glyph-name="osuperior" unicode="&#xf6f0;" horiz-adv-x="491" 
d="M27 383q0 92 62.5 153t155.5 61q91 0 153 -61t62 -153q0 -88 -62.5 -150t-152.5 -62q-92 0 -155 60.5t-63 151.5zM146 383q0 -43 28 -72.5t70 -29.5t69.5 30t27.5 72q0 45 -27.5 75t-69.5 30t-70 -30t-28 -75z" />
    <glyph glyph-name="rsuperior" unicode="&#xf6f1;" horiz-adv-x="315" 
d="M305 594v-124q-19 4 -37 4q-64 0 -89 -49q-11 -23 -11 -87v-158h-118v408h118v-66q41 75 107 75q15 0 30 -3z" />
    <glyph glyph-name="ssuperior" unicode="&#xf6f2;" horiz-adv-x="347" 
d="M323 294q0 -56 -38.5 -89.5t-98.5 -33.5q-110 0 -166 100l89 56q29 -52 80 -52q27 0 27 19q0 15 -26 28l-69 36q-84 44 -84 114q0 51 38 88t97 37q77 0 128 -68l-79 -68q-28 33 -55 33q-23 0 -23 -17q0 -13 21 -23l67 -33q47 -23 69.5 -52t22.5 -75z" />
    <glyph glyph-name="tsuperior" unicode="&#xf6f3;" horiz-adv-x="285" 
d="M272 482h-72v-302h-117v302h-72v106h72v80l117 17v-97h72v-106z" />
    <glyph glyph-name="acute.cap" horiz-adv-x="500" 
d="M138 758l50 124h169l-104 -124h-115z" />
    <glyph glyph-name="grave.cap" horiz-adv-x="500" 
d="M311 882l50 -124h-115l-104 124h169z" />
    <glyph glyph-name="dieresis.cap" horiz-adv-x="500" 
d="M73 822q0 32 22.5 49.5t57.5 17.5q34 0 56.5 -17.5t22.5 -49.5q0 -33 -22 -50.5t-57 -17.5t-57.5 17.5t-22.5 50.5zM268 822q0 32 22.5 49.5t57.5 17.5t57.5 -17.5t22.5 -49.5t-22.5 -50t-57.5 -18t-57.5 17.5t-22.5 50.5z" />
    <glyph glyph-name="circumflex.cap" horiz-adv-x="500" 
d="M326 882l122 -125h-150l-48 46l-48 -46h-150l121 125h153z" />
    <glyph glyph-name="tilde.cap" horiz-adv-x="500" 
d="M242 771q-47 17 -64 17q-23 0 -26 -38l-87 13q2 62 33.5 98t80.5 36q18 0 79 -21q44 -16 64 -16q23 0 27 37l86 -9q-2 -63 -33.5 -100t-80.5 -37q-25 0 -79 20z" />
    <glyph glyph-name="macron.cap" horiz-adv-x="500" 
d="M98 787v96h304v-96h-304z" />
    <glyph glyph-name="breve.cap" horiz-adv-x="500" 
d="M329 888h77q-4 -60 -45 -96t-111 -36t-110.5 36t-45.5 96h75q21 -36 81 -36q59 0 79 36z" />
    <glyph glyph-name="dotaccent.cap" horiz-adv-x="500" 
d="M157 830q0 36 26.5 54.5t66.5 18.5t66.5 -18.5t26.5 -54.5t-26.5 -54t-66.5 -18t-66.5 18t-26.5 54z" />
    <glyph glyph-name="ring.cap" horiz-adv-x="500" 
d="M135 784q0 48 34 81t81 33t81 -33t34 -81t-34 -81t-81 -33t-81 33t-34 81zM212 784q0 -16 11 -27.5t27 -11.5t27 11.5t11 27.5q0 17 -11 28t-27 11t-27 -11.5t-11 -27.5z" />
    <glyph glyph-name="hungarumlaut.cap" horiz-adv-x="500" 
d="M63 757l44 121h162l-104 -121h-102zM229 757l45 121h161l-104 -121h-102z" />
    <glyph glyph-name="caron.cap" horiz-adv-x="500" 
d="M448 882l-122 -125h-153l-121 125h150l48 -46l48 46h150z" />
    <glyph glyph-name="zero.plf" horiz-adv-x="572" 
d="M380 360q0 114 -25.5 172.5t-68.5 58.5t-68.5 -58.5t-25.5 -172.5t25.5 -172.5t68.5 -58.5t68.5 58.5t25.5 172.5zM534 360q0 -210 -98 -310q-62 -62 -150 -62t-150 62q-98 100 -98 310t98 310q62 62 150 62t150 -62q98 -100 98 -310z" />
    <glyph glyph-name="one.plf" horiz-adv-x="441" 
d="M34 491v113h16q143 0 200 116h108v-720h-154v491h-170z" />
    <glyph glyph-name="two.plf" horiz-adv-x="545" 
d="M508 140v-140h-471v30q0 71 16 117q25 68 105 136l112 96q46 39 61 65t15 59q0 37 -24.5 61t-60.5 24q-70 0 -109 -88l-119 57q30 80 88.5 127.5t144.5 47.5q104 0 167.5 -66.5t63.5 -163.5q0 -77 -28.5 -123.5t-112.5 -111.5l-96 -74q-45 -36 -48 -53h296z" />
    <glyph glyph-name="three.plf" horiz-adv-x="540" 
d="M262 132q40 0 66.5 24.5t26.5 64.5q0 64 -58 84q-19 7 -73 7h-40v132h28q57 0 81 10q44 17 44 67q0 31 -20.5 50.5t-53.5 19.5q-56 0 -102 -57l-104 83q78 115 208 115q94 0 153 -56t59 -147q0 -102 -89 -149q51 -22 83 -68t32 -107q0 -102 -69 -159.5t-175 -57.5
q-160 0 -230 138l121 77q22 -36 47.5 -53.5t64.5 -17.5z" />
    <glyph glyph-name="four.plf" horiz-adv-x="573" 
d="M332 553l-180 -254h180v254zM546 299v-127h-69v-172h-145v172h-305v146l297 402h153v-421h69z" />
    <glyph glyph-name="five.plf" horiz-adv-x="554" 
d="M307 480q91 0 154.5 -65t63.5 -171q0 -108 -71 -182t-182 -74q-86 0 -147.5 45.5t-93.5 125.5l123 58q45 -88 119 -88q47 0 75.5 30.5t28.5 79.5q0 50 -27.5 79.5t-74.5 29.5q-56 0 -96 -46l-127 29l36 389h395v-139h-282l-17 -167q45 66 123 66z" />
    <glyph glyph-name="six.plf" horiz-adv-x="571" 
d="M211 225q0 -43 25.5 -71t65.5 -28q42 0 68 28t26 71q0 44 -26.5 71t-67.5 27q-39 0 -65 -28t-26 -70zM315 732q64 0 109.5 -22t86.5 -67l-93 -103q-54 54 -104 54q-52 0 -82 -46q-37 -58 -37 -180q17 40 53 65t86 25q85 0 146 -63.5t61 -163.5q0 -103 -66 -173t-168 -70
q-112 0 -181 76q-80 88 -80 274q0 218 92 317q71 77 177 77z" />
    <glyph glyph-name="seven.plf" horiz-adv-x="546" 
d="M29 580v140h500v-119q-107 -130 -167.5 -275t-74.5 -326h-169q13 152 82 301t184 279h-355z" />
    <glyph glyph-name="eight.plf" horiz-adv-x="562" 
d="M281 -12q-104 0 -172 61t-68 160q0 56 27 103t70 68q-71 55 -71 143q0 89 62 149t152 60t152.5 -60t62.5 -149q0 -87 -72 -143q43 -21 70 -68.5t27 -103.5q0 -99 -68 -159.5t-172 -60.5zM183 219q0 -41 27 -68.5t71 -27.5t71 28t27 68t-28 68t-70 28t-70 -28t-28 -68z
M199 519q0 -34 23.5 -57.5t58.5 -23.5t59 24.5t24 56.5q0 34 -23 57.5t-60 23.5t-59.5 -23t-22.5 -58z" />
    <glyph glyph-name="nine.plf" horiz-adv-x="571" 
d="M360 495q0 43 -25.5 71t-65.5 28q-42 0 -68 -28t-26 -71q0 -44 26.5 -71t67.5 -27q39 0 65 28t26 70zM256 -12q-117 0 -206 98l93 103q65 -63 114 -63q52 0 82 46q37 58 37 180q-17 -40 -53 -65t-86 -25q-85 0 -146 63.5t-61 163.5q0 103 66 173t168 70q112 0 181 -76
q80 -88 80 -274q0 -218 -92 -317q-71 -77 -177 -77z" />
    <glyph glyph-name="commaaccent.salt" horiz-adv-x="500" 
d="M187 554l-2 166h133l-59 -166h-72z" />
    <glyph glyph-name="zero.osf" horiz-adv-x="667" 
d="M40 281q0 127 84.5 210.5t209.5 83.5t209.5 -83.5t84.5 -210.5q0 -121 -85.5 -207t-208.5 -86q-125 0 -209.5 83.5t-84.5 209.5zM194 281q0 -65 40 -108.5t100 -43.5q59 0 99.5 45t40.5 107q0 66 -40 109.5t-100 43.5q-61 0 -100.5 -43.5t-39.5 -109.5z" />
    <glyph glyph-name="one.osf" horiz-adv-x="441" 
d="M34 334v113h16q143 0 200 116h108v-563h-154v334h-170z" />
    <glyph glyph-name="two.osf" horiz-adv-x="516" 
d="M267 575q91 0 146 -53.5t55 -127.5q0 -61 -30.5 -104.5t-97.5 -78.5l-68 -35q-47 -24 -50 -36h257v-140h-441v41q0 51 19 93q37 81 142 141l49 28q31 18 48 34.5t19.5 25.5t2.5 21q0 18 -14.5 32.5t-40.5 14.5q-70 0 -102 -71l-119 54q26 74 87 117.5t138 43.5z" />
    <glyph glyph-name="three.osf" horiz-adv-x="540" 
d="M261 -25q40 0 66.5 24.5t26.5 64.5q0 64 -58 84q-19 7 -73 7h-40v132h28q57 0 81 10q44 17 44 67q0 31 -20.5 50.5t-53.5 19.5q-56 0 -102 -57l-104 83q78 115 208 115q94 0 153 -56t59 -147q0 -102 -89 -149q51 -22 83 -68t32 -107q0 -102 -69 -159.5t-175 -57.5
q-160 0 -230 138l121 77q22 -36 47.5 -53.5t64.5 -17.5z" />
    <glyph glyph-name="four.osf" horiz-adv-x="573" 
d="M333 391l-182 -263h182v263zM548 128v-128h-70v-169h-145v169h-305v147l297 416h153v-435h70z" />
    <glyph glyph-name="five.osf" horiz-adv-x="554" 
d="M307 323q91 0 154.5 -65t63.5 -171q0 -108 -71 -182t-182 -74q-86 0 -147.5 45.5t-93.5 125.5l123 58q45 -88 119 -88q47 0 75.5 30.5t28.5 79.5q0 50 -27.5 79.5t-74.5 29.5q-56 0 -96 -46l-127 29l36 389h395v-139h-282l-17 -167q45 66 123 66z" />
    <glyph glyph-name="six.osf" horiz-adv-x="571" 
d="M211 225q0 -43 25.5 -71t65.5 -28q42 0 68 28t26 71q0 44 -26.5 71t-67.5 27q-39 0 -65 -28t-26 -70zM315 732q64 0 109.5 -22t86.5 -67l-93 -103q-54 54 -104 54q-52 0 -82 -46q-37 -58 -37 -180q17 40 53 65t86 25q85 0 146 -63.5t61 -163.5q0 -103 -66 -173t-168 -70
q-112 0 -181 76q-80 88 -80 274q0 218 92 317q71 77 177 77z" />
    <glyph glyph-name="seven.osf" horiz-adv-x="546" 
d="M29 423v140h500v-119q-108 -131 -168 -277t-74 -336h-169q25 319 266 592h-355z" />
    <glyph glyph-name="eight.osf" horiz-adv-x="562" 
d="M281 -12q-104 0 -172 61t-68 160q0 56 27 103t70 68q-71 55 -71 143q0 89 62 149t152 60t152.5 -60t62.5 -149q0 -87 -72 -143q43 -21 70 -68.5t27 -103.5q0 -99 -68 -159.5t-172 -60.5zM183 219q0 -41 27 -68.5t71 -27.5t71 28t27 68t-28 68t-70 28t-70 -28t-28 -68z
M199 519q0 -34 23.5 -57.5t58.5 -23.5t59 24.5t24 56.5q0 34 -23 57.5t-60 23.5t-59.5 -23t-22.5 -58z" />
    <glyph glyph-name="nine.osf" horiz-adv-x="571" 
d="M360 338q0 43 -25.5 71t-65.5 28q-42 0 -68 -28t-26 -71q0 -44 26.5 -71t67.5 -27q39 0 65 28t26 70zM256 -169q-117 0 -206 98l93 103q65 -63 114 -63q52 0 82 46q37 58 37 180q-17 -40 -53 -65t-86 -25q-85 0 -146 63.5t-61 163.5q0 103 66 173t168 70q112 0 181 -76
q80 -88 80 -274q0 -218 -92 -317q-71 -77 -177 -77z" />
    <glyph glyph-name="zero.tosf" 
d="M376 281q0 75 -25.5 114t-68.5 39t-68.5 -38.5t-25.5 -114.5q0 -75 25.5 -113.5t68.5 -38.5t68.5 38.5t25.5 113.5zM530 281q0 -127 -68 -210t-180 -83q-115 0 -181.5 85t-66.5 208q0 127 68 210.5t180 83.5q115 0 181.5 -85.5t66.5 -208.5z" />
    <glyph glyph-name="one.tosf" 
d="M79 334v113h16q143 0 200 116h108v-563h-154v334h-170z" />
    <glyph glyph-name="two.tosf" 
d="M293 575q91 0 146 -53.5t55 -127.5q0 -61 -30.5 -104.5t-97.5 -78.5l-68 -35q-47 -24 -50 -36h257v-140h-441v41q0 51 19 93q37 81 142 141l49 28q31 18 48 34.5t19.5 25.5t2.5 21q0 18 -14.5 32.5t-40.5 14.5q-70 0 -102 -71l-119 54q26 74 87 117.5t138 43.5z" />
    <glyph glyph-name="three.tosf" 
d="M275 -25q40 0 66.5 24.5t26.5 64.5q0 64 -58 84q-19 7 -73 7h-40v132h28q57 0 81 10q44 17 44 67q0 31 -20.5 50.5t-53.5 19.5q-56 0 -102 -57l-104 83q78 115 208 115q94 0 153 -56t59 -147q0 -102 -89 -149q51 -22 83 -68t32 -107q0 -102 -69 -159.5t-175 -57.5
q-160 0 -230 138l121 77q22 -36 47.5 -53.5t64.5 -17.5z" />
    <glyph glyph-name="four.tosf" 
d="M329 391l-182 -263h182v263zM543 128v-128h-69v-169h-145v169h-305v147l297 416h153v-435h69z" />
    <glyph glyph-name="five.tosf" 
d="M312 323q91 0 154.5 -65t63.5 -171q0 -108 -71 -182t-182 -74q-86 0 -147.5 45.5t-93.5 125.5l123 58q45 -88 119 -88q47 0 75.5 30.5t28.5 79.5q0 50 -27.5 79.5t-74.5 29.5q-56 0 -96 -46l-127 29l36 389h395v-139h-282l-17 -167q45 66 123 66z" />
    <glyph glyph-name="six.tosf" 
d="M208 225q0 -43 25.5 -71t65.5 -28q42 0 68 28t26 71q0 44 -26.5 71t-67.5 27q-39 0 -65 -28t-26 -70zM312 732q64 0 109.5 -22t86.5 -67l-93 -103q-54 54 -104 54q-52 0 -82 -46q-37 -58 -37 -180q17 40 53 65t86 25q85 0 146 -63.5t61 -163.5q0 -103 -66 -173t-168 -70
q-112 0 -181 76q-80 88 -80 274q0 218 92 317q71 77 177 77z" />
    <glyph glyph-name="seven.tosf" 
d="M38 423v140h500v-119q-108 -131 -168 -277t-74 -336h-169q25 319 266 592h-355z" />
    <glyph glyph-name="eight.tosf" 
d="M282 -12q-104 0 -172 61t-68 160q0 56 27 103t70 68q-71 55 -71 143q0 89 62 149t152 60t152.5 -60t62.5 -149q0 -87 -72 -143q43 -21 70 -68.5t27 -103.5q0 -99 -68 -159.5t-172 -60.5zM184 219q0 -41 27 -68.5t71 -27.5t71 28t27 68t-28 68t-70 28t-70 -28t-28 -68z
M200 519q0 -34 23.5 -57.5t58.5 -23.5t59 24.5t24 56.5q0 34 -23 57.5t-60 23.5t-59.5 -23t-22.5 -58z" />
    <glyph glyph-name="nine.tosf" 
d="M357 338q0 43 -25.5 71t-65.5 28q-42 0 -68 -28t-26 -71q0 -44 26.5 -71t67.5 -27q39 0 65 28t26 70zM253 -169q-117 0 -206 98l93 103q65 -63 114 -63q52 0 82 46q37 58 37 180q-17 -40 -53 -65t-86 -25q-85 0 -146 63.5t-61 163.5q0 103 66 173t168 70q112 0 181 -76
q80 -88 80 -274q0 -218 -92 -317q-71 -77 -177 -77z" />
    <glyph glyph-name="csuperior" horiz-adv-x="454" 
d="M242 171q-92 0 -153.5 60.5t-61.5 151.5q0 92 62.5 153t152.5 61q136 0 184 -109l-99 -55q-29 55 -84 55q-43 0 -70 -30t-27 -75q0 -43 27 -72.5t70 -29.5q57 0 85 61l108 -42q-47 -129 -194 -129z" />
    <glyph glyph-name="fsuperior" horiz-adv-x="285" 
d="M200 592v-4h72v-106h-72v-302h-117v302h-72v106h72v9q0 62 34.5 97t102.5 35q30 0 62 -8l-11 -96q-24 4 -34 4q-37 0 -37 -37z" />
    <glyph glyph-name="gsuperior" horiz-adv-x="485" 
d="M429 588v-342q0 -93 -52.5 -146t-146.5 -53q-80 0 -130.5 35.5t-65.5 87.5l118 21q22 -39 80 -39q80 0 80 92v19q-17 -19 -45.5 -32.5t-58.5 -13.5q-76 0 -128 53t-52 137q0 85 51.5 137.5t127.5 52.5q66 0 105 -50v41h117zM150 406q0 -34 23 -59t61 -25q39 0 61 21
t22 63q0 39 -22.5 62.5t-60.5 23.5q-40 0 -62 -22t-22 -64z" />
    <glyph glyph-name="ksuperior" horiz-adv-x="449" 
d="M440 180h-154l-81 137l-36 -48v-89h-119v540h119v-282l108 150h151l-143 -173z" />
    <glyph glyph-name="psuperior" horiz-adv-x="503" 
d="M349 383q0 47 -25 77.5t-66 30.5q-40 0 -65 -28.5t-25 -79.5q0 -47 26 -76t65 -29q41 0 65.5 29t24.5 76zM470 383q0 -94 -54.5 -153t-131.5 -59q-69 0 -112 45v-161h-117v533h117v-48q45 57 117 57q78 0 129.5 -60t51.5 -154z" />
    <glyph glyph-name="qsuperior" horiz-adv-x="503" 
d="M149 385q0 -44 25.5 -75.5t65.5 -31.5q41 0 66 27.5t25 79.5q0 46 -26 76.5t-65 30.5q-43 0 -67 -29t-24 -78zM27 385q0 94 54 153t132 59q72 0 114 -52v43h117v-533h-117v159q-45 -43 -110 -43q-81 0 -135.5 60t-54.5 154z" />
    <glyph glyph-name="usuperior" horiz-adv-x="455" 
d="M180 171q-49 0 -81.5 26t-44.5 67q-9 30 -9 93v231h117v-226q0 -32 5 -47q12 -36 50 -36q43 0 59 38q9 22 9 63v208h117v-408h-117v53q-38 -62 -105 -62z" />
    <glyph glyph-name="vsuperior" horiz-adv-x="442" 
d="M306 588h129l-157 -408h-124l-151 408h132l85 -245z" />
    <glyph glyph-name="zsuperior" horiz-adv-x="412" 
d="M30 482v106h350v-80l-180 -221h191v-107h-374v69l188 233h-175z" />
    <glyph glyph-name="minus.osf" 
d="M65 341h450v-118h-450v118z" />
    <glyph glyph-name="multiply.osf" 
d="M290 366l118 116l82 -82l-116 -118l116 -118l-82 -82l-118 116l-118 -116l-82 82l116 118l-116 118l82 82z" />
    <glyph glyph-name="plus.osf" 
d="M349 341h166v-118h-166v-166h-118v166h-166v118h166v166h118v-166z" />
    <glyph glyph-name="less.osf" 
d="M515 24l-450 223v69l450 223v-135l-272 -122l272 -120v-138z" />
    <glyph glyph-name="equal.osf" 
d="M65 441h450v-118h-450v118zM65 241h450v-118h-450v118z" />
    <glyph glyph-name="greater.osf" 
d="M515 247l-450 -223v138l272 120l-272 122v135l450 -223v-69z" />
    <glyph glyph-name="asciitilde.osf" 
d="M154 191l-101 6q0 161 131 161q40 0 93 -16l62 -19q24 -7 36 -7q35 0 35 56l101 -6q0 -83 -37 -122t-94 -39q-40 0 -93 16l-62 19q-24 7 -36 7q-35 0 -35 -56z" />
    <glyph glyph-name="notequal.osf" 
d="M332 241h183v-118h-251l-86 -147l-103 60l50 87h-60v118h129l48 82h-177v118h246l90 153l103 -60l-54 -93h65v-118h-134z" />
    <glyph glyph-name="infinity.osf" 
d="M135 281q0 -18 9.5 -29.5t25.5 -11.5q28 0 53 30l-15 21q-22 30 -43 30q-13 0 -21.5 -11.5t-8.5 -28.5zM302 169l-22 27q-29 -39 -55 -54.5t-58 -15.5q-57 0 -96 42.5t-39 110.5t38 112t94 44q60 0 102 -48l16 -19q50 67 115 67q56 0 95.5 -41.5t39.5 -111.5
q0 -67 -36 -111.5t-98 -44.5t-96 43zM430 280q0 19 -10 30t-27 11q-26 0 -53 -29l17 -24q18 -27 41 -27q14 0 23 11.5t9 27.5z" />
    <glyph glyph-name="plusminus.osf" 
d="M349 160h166v-118h-450v118h166v102h-166v118h166v146h118v-146h166v-118h-166v-102z" />
    <glyph glyph-name="lessequal.osf" 
d="M65 0v118h355l-355 176v69l450 223v-135l-272 -122l272 -120v-209h-450z" />
    <glyph glyph-name="greaterequal.osf" 
d="M499 118v-118h-450v209l272 120l-272 122v135l450 -223v-69l-355 -176h355z" />
    <glyph glyph-name="logicalnot.osf" 
d="M515 441v-318h-118v200h-332v118h450z" />
    <glyph glyph-name="approxequal.osf" 
d="M162 291l-101 6q0 161 131 161q40 0 93 -16l62 -19q24 -7 36 -7q35 0 35 56l101 -6q0 -83 -37 -122t-94 -39q-40 0 -93 16l-62 19q-24 7 -36 7q-35 0 -35 -56zM162 91l-101 6q0 161 131 161q40 0 93 -16l62 -19q24 -7 36 -7q35 0 35 56l101 -6q0 -83 -37 -122t-94 -39
q-40 0 -93 16l-62 19q-24 7 -36 7q-35 0 -35 -56z" />
    <glyph glyph-name="divide.osf" 
d="M65 341h450v-118h-450v118zM229 106q0 28 17 45t44 17q28 0 45 -17t17 -45q0 -27 -17 -44t-45 -17q-27 0 -44 17t-17 44zM229 457q0 28 17 45t44 17q28 0 45 -17t17 -45q0 -27 -17 -44t-45 -17q-27 0 -44 17t-17 44z" />
    <glyph glyph-name="periodcentered.osf" horiz-adv-x="265" 
d="M41 273q0 41 25.5 66t66.5 25t66 -25t25 -66t-25 -66.5t-66 -25.5t-66.5 25.5t-25.5 66.5z" />
    <glyph glyph-name="hyphen.case" horiz-adv-x="265" 
d="M243 425v-132h-220v132h220z" />
    <glyph glyph-name="endash.case" horiz-adv-x="500" 
d="M500 407v-96h-500v96h500z" />
    <glyph glyph-name="emdash.case" horiz-adv-x="1000" 
d="M1000 407v-96h-1000v96h1000z" />
    <glyph glyph-name="parenleft.case" horiz-adv-x="362" 
d="M77 367q0 235 150 441h117q-133 -204 -133 -441q0 -244 133 -448h-117q-150 207 -150 448z" />
    <glyph glyph-name="parenright.case" horiz-adv-x="362" 
d="M287 367q0 -246 -152 -448h-117q135 207 135 448q0 234 -135 441h117q152 -200 152 -441z" />
    <glyph glyph-name="bracketleft.case" horiz-adv-x="362" 
d="M201 31h143v-112h-261v889h261v-112h-143v-665z" />
    <glyph glyph-name="bracketright.case" horiz-adv-x="362" 
d="M18 31h143v665h-143v112h261v-889h-261v112z" />
    <glyph glyph-name="braceleft.case" horiz-adv-x="362" 
d="M120 365q54 -12 77 -35.5t23 -71.5v-157q0 -70 66 -70h58v-112h-76q-64 0 -115 38t-51 108v147q0 56 -17 83.5t-78 27.5v83q61 0 78 27.5t17 83.5v146q0 68 51 106.5t115 38.5h76v-112h-58q-66 0 -66 -70v-155q0 -48 -23 -71.5t-77 -34.5z" />
    <glyph glyph-name="braceright.case" horiz-adv-x="362" 
d="M242 365q-54 11 -77 34.5t-23 71.5v155q0 70 -66 70h-58v112h76q64 0 115 -38.5t51 -106.5v-146q0 -56 17 -83.5t78 -27.5v-83q-61 0 -78 -27.5t-17 -83.5v-147q0 -70 -51 -108t-115 -38h-76v112h58q66 0 66 70v157q0 48 23 71.5t77 35.5z" />
    <glyph glyph-name="guillemotleft.case" horiz-adv-x="476" 
d="M30 437l204 159v-152l-111 -85l111 -85v-152l-204 159v156zM234 437l204 159v-152l-111 -85l111 -85v-152l-204 159v156z" />
    <glyph glyph-name="guillemotright.case" horiz-adv-x="476" 
d="M38 596l204 -159v-156l-204 -159v152l111 85l-111 85v152zM242 596l204 -159v-156l-204 -159v152l111 85l-111 85v152z" />
    <glyph glyph-name="guilsinglleft.case" horiz-adv-x="272" 
d="M30 437l204 159v-152l-111 -85l111 -85v-152l-204 159v156z" />
    <glyph glyph-name="guilsinglright.case" horiz-adv-x="272" 
d="M38 596l204 -159v-156l-204 -159v152l111 85l-111 85v152z" />
    <glyph glyph-name="zero.num" horiz-adv-x="433" 
d="M279 450q0 82 -17.5 124t-47.5 42q-29 0 -45.5 -42t-16.5 -124q0 -165 62 -165q30 0 47.5 41.5t17.5 123.5zM402 450q0 -161 -74 -233q-46 -46 -114 -46q-66 0 -114 46q-73 70 -73 233t73 233q47 46 114 46t115 -46q73 -73 73 -233z" />
    <glyph glyph-name="one.num" horiz-adv-x="325" 
d="M19 542v94h17q104 0 145 84h86v-540h-122v362h-126z" />
    <glyph glyph-name="two.num" horiz-adv-x="406" 
d="M375 292v-112h-357v28q0 50 12 86q16 47 82 103l82 69q33 27 44 47t11 43q0 26 -18 41.5t-44 15.5q-50 0 -76 -62l-97 42q18 58 67.5 97t112.5 39q80 0 127 -49t47 -123q0 -53 -24.5 -91t-87.5 -86l-68 -52q-27 -21 -33 -36h220z" />
    <glyph glyph-name="three.num" horiz-adv-x="409" 
d="M198 286q27 0 44.5 16t17.5 43q0 43 -40 61q-15 7 -54 7h-34v102h26q37 0 58 8q30 10 30 45q0 20 -14 34t-35 14q-39 0 -71 -38l-82 65q63 86 155 86q71 0 115 -43.5t44 -110.5q0 -79 -64 -109q38 -14 61.5 -49t23.5 -81q0 -78 -48.5 -121.5t-123.5 -43.5
q-122 0 -183 101l89 65q35 -51 85 -51z" />
    <glyph glyph-name="four.num" horiz-adv-x="434" 
d="M244 579l-118 -169h118v169zM413 410v-103h-52v-127h-117v127h-223v115l219 298h121v-310h52z" />
    <glyph glyph-name="five.num" horiz-adv-x="420" 
d="M240 539q63 0 109.5 -47.5t46.5 -127.5t-54.5 -136.5t-136.5 -56.5q-65 0 -114 34t-70 88l96 51q32 -59 86 -59q33 0 54 21.5t21 54.5q0 35 -18.5 55t-50.5 20q-41 0 -71 -35l-101 23l27 296h299v-111h-209l-12 -115q39 45 98 45z" />
    <glyph glyph-name="six.num" horiz-adv-x="433" 
d="M164 351q0 -30 17.5 -49.5t45.5 -19.5q29 0 46.5 18.5t17.5 50.5q0 30 -18 48t-46 18q-27 0 -45 -18.5t-18 -47.5zM235 729q49 0 83.5 -16.5t70.5 -54.5l-71 -84q-44 44 -83 44q-37 0 -57 -30q-26 -42 -26 -129q32 69 103 69q60 0 106.5 -49t46.5 -124
q0 -77 -50.5 -130.5t-127.5 -53.5q-84 0 -138 58q-58 64 -58 204q0 159 69 235q55 61 132 61z" />
    <glyph glyph-name="seven.num" horiz-adv-x="414" 
d="M221 181h-136q10 112 65.5 223t143.5 205h-273v111h378v-99q-160 -191 -178 -440z" />
    <glyph glyph-name="eight.num" horiz-adv-x="425" 
d="M211 171q-78 0 -129 46.5t-51 121.5q0 84 74 127q-57 45 -57 105q0 67 47 112.5t116 45.5t116 -45.5t47 -112.5q0 -70 -57 -105q34 -17 54.5 -52t20.5 -75q0 -75 -51.5 -121.5t-129.5 -46.5zM144 346q0 -28 18.5 -47t48.5 -19t49 19.5t19 46.5t-19.5 47t-48.5 20
q-28 0 -47.5 -20t-19.5 -47zM154 567q0 -22 16.5 -38t40.5 -16t40 16t16 38q0 23 -15.5 39t-40.5 16t-41 -16t-16 -39z" />
    <glyph glyph-name="nine.num" horiz-adv-x="433" 
d="M266 549q0 30 -17.5 49.5t-45.5 19.5q-29 0 -46.5 -18.5t-17.5 -50.5q0 -30 18 -48t46 -18q27 0 45 18.5t18 47.5zM195 171q-49 0 -83.5 16.5t-70.5 54.5l71 84q44 -44 83 -44q37 0 57 30q26 42 26 129q-32 -69 -103 -69q-60 0 -106.5 49t-46.5 124q0 77 50.5 130.5
t127.5 53.5q84 0 138 -58q58 -64 58 -204q0 -159 -69 -235q-55 -61 -132 -61z" />
    <glyph glyph-name="zero.den" horiz-adv-x="433" 
d="M279 270q0 82 -17.5 124t-47.5 42q-29 0 -45.5 -42t-16.5 -124q0 -165 62 -165q30 0 47.5 41.5t17.5 123.5zM402 270q0 -161 -74 -233q-46 -46 -114 -46q-66 0 -114 46q-73 70 -73 233t73 233q47 46 114 46t115 -46q73 -73 73 -233z" />
    <glyph glyph-name="one.den" horiz-adv-x="325" 
d="M19 362v94h17q104 0 145 84h86v-540h-122v362h-126z" />
    <glyph glyph-name="two.den" horiz-adv-x="406" 
d="M375 112v-112h-357v28q0 50 12 86q16 47 82 103l82 69q33 27 44 47t11 43q0 26 -18 41.5t-44 15.5q-50 0 -76 -62l-97 42q18 58 67.5 97t112.5 39q80 0 127 -49t47 -123q0 -53 -24.5 -91t-87.5 -86l-68 -52q-27 -21 -33 -36h220z" />
    <glyph glyph-name="three.den" horiz-adv-x="409" 
d="M198 106q27 0 44.5 16t17.5 43q0 43 -40 61q-15 7 -54 7h-34v102h26q37 0 58 8q30 10 30 45q0 20 -14 34t-35 14q-39 0 -71 -38l-82 65q63 86 155 86q71 0 115 -43.5t44 -110.5q0 -79 -64 -109q38 -14 61.5 -49t23.5 -81q0 -78 -48.5 -121.5t-123.5 -43.5
q-122 0 -183 101l89 65q35 -51 85 -51z" />
    <glyph glyph-name="four.den" horiz-adv-x="434" 
d="M244 399l-118 -169h118v169zM413 230v-103h-52v-127h-117v127h-223v115l219 298h121v-310h52z" />
    <glyph glyph-name="five.den" horiz-adv-x="420" 
d="M240 359q63 0 109.5 -47.5t46.5 -127.5t-54.5 -136.5t-136.5 -56.5q-65 0 -114 34t-70 88l96 51q32 -59 86 -59q33 0 54 21.5t21 54.5q0 35 -18.5 55t-50.5 20q-41 0 -71 -35l-101 23l27 296h299v-111h-209l-12 -115q39 45 98 45z" />
    <glyph glyph-name="six.den" horiz-adv-x="433" 
d="M164 171q0 -30 17.5 -49.5t45.5 -19.5q29 0 46.5 18.5t17.5 50.5q0 30 -18 48t-46 18q-27 0 -45 -18.5t-18 -47.5zM235 549q49 0 83.5 -16.5t70.5 -54.5l-71 -84q-44 44 -83 44q-37 0 -57 -30q-26 -42 -26 -129q32 69 103 69q60 0 106.5 -49t46.5 -124
q0 -77 -50.5 -130.5t-127.5 -53.5q-84 0 -138 58q-58 64 -58 204q0 159 69 235q55 61 132 61z" />
    <glyph glyph-name="seven.den" horiz-adv-x="414" 
d="M221 0h-136q10 112 65.5 223t143.5 205h-273v111h378v-99q-160 -191 -178 -440z" />
    <glyph glyph-name="eight.den" horiz-adv-x="425" 
d="M211 -9q-78 0 -129 46.5t-51 121.5q0 84 74 127q-57 45 -57 105q0 67 47 112.5t116 45.5t116 -45.5t47 -112.5q0 -70 -57 -105q34 -17 54.5 -52t20.5 -75q0 -75 -51.5 -121.5t-129.5 -46.5zM144 166q0 -28 18.5 -47t48.5 -19t49 19.5t19 46.5t-19.5 47t-48.5 20
q-28 0 -47.5 -20t-19.5 -47zM154 387q0 -22 16.5 -38t40.5 -16t40 16t16 38q0 23 -15.5 39t-40.5 16t-41 -16t-16 -39z" />
    <glyph glyph-name="nine.den" horiz-adv-x="433" 
d="M266 369q0 30 -17.5 49.5t-45.5 19.5q-29 0 -46.5 -18.5t-17.5 -50.5q0 -30 18 -48t46 -18q27 0 45 18.5t18 47.5zM195 -9q-49 0 -83.5 16.5t-70.5 54.5l71 84q44 -44 83 -44q37 0 57 30q26 42 26 129q-32 -69 -103 -69q-60 0 -106.5 49t-46.5 124q0 77 50.5 130.5
t127.5 53.5q84 0 138 -58q58 -64 58 -204q0 -159 -69 -235q-55 -61 -132 -61z" />
    <glyph glyph-name="space.em" horiz-adv-x="1000" 
 />
    <glyph glyph-name="space.en" horiz-adv-x="500" 
 />
    <glyph glyph-name="space.fourperem" horiz-adv-x="250" 
 />
    <glyph glyph-name="space.hair" horiz-adv-x="75" 
 />
    <glyph glyph-name="space.thin" horiz-adv-x="100" 
 />
    <glyph glyph-name="space.figure" 
 />
    <glyph glyph-name="invbreve" horiz-adv-x="500" 
d="M411 579h-81q-23 45 -80 45q-60 0 -80 -45h-80q5 66 46.5 103.5t113.5 37.5t114.5 -37.5t46.5 -103.5z" />
    <glyph glyph-name="dotbelow" horiz-adv-x="500" 
d="M162 -129q0 37 24.5 57.5t63.5 20.5t63.5 -20.5t24.5 -57.5t-24.5 -57.5t-63.5 -20.5t-63.5 20.5t-24.5 57.5z" />
    <glyph glyph-name="dblgrave.cap" horiz-adv-x="500" 
d="M224 878l45 -121h-102l-104 121h161zM391 878l44 -121h-102l-104 121h162z" />
    <glyph glyph-name="invbreve.cap" horiz-adv-x="500" 
d="M406 756h-77q-20 36 -79 36q-60 0 -81 -36h-75q5 60 45.5 96t110.5 36t111 -36t45 -96z" />
    <glyph glyph-name="Kgreenlandic" horiz-adv-x="689" 
d="M683 0h-202l-180 302l-80 -97v-205h-153v720h153v-298l230 298h204l-246 -292z" />
    <glyph glyph-name="Napostrophe" horiz-adv-x="850" 
d="M620 0l-284 449v-449h-143v720h152l294 -460v460h143v-720h-162zM36 554l-2 166h133l-59 -166h-72z" />
    <glyph glyph-name="quotedblreversed" horiz-adv-x="464" 
d="M396 720l32 -288h-89l-104 288h161zM197 720l32 -288h-89l-104 288h161z" />
    <glyph glyph-name="phonomark" horiz-adv-x="822" 
d="M444 460h-53v-75h49q46 0 46 37q0 17 -12 27.5t-30 10.5zM439 292h-48v-137h-103v402h158q69 0 108.5 -36.5t39.5 -96.5q0 -61 -40.5 -96.5t-114.5 -35.5zM411 -12q-160 0 -266 106t-106 266t105.5 266t266.5 106t266.5 -106t105.5 -266t-106 -266t-266 -106zM683 360
q0 118 -77.5 198.5t-194.5 80.5t-194.5 -80.5t-77.5 -198.5q0 -119 77.5 -198.5t194.5 -79.5q118 0 195 79.5t77 198.5z" />
    <glyph glyph-name="ffi.trk" horiz-adv-x="948" 
d="M568 541h97v-132h-97v-409h-146v409h-170v-409h-146v409h-97v132h97v8q0 83 46.5 133t133.5 50q37 0 73 -9l-12 -126q-24 4 -37 4q-58 0 -58 -56v-4h170v8q0 83 46.5 133t133.5 50q37 0 73 -9l-12 -126q-24 4 -37 4q-58 0 -58 -56v-4zM884 541v-541h-146v541h146z
M723 652q0 37 24.5 57.5t63.5 20.5t63.5 -20.5t24.5 -57.5t-24.5 -57.5t-63.5 -20.5t-63.5 20.5t-24.5 57.5z" />
    <glyph glyph-name="space.threeperem" horiz-adv-x="333" 
 />
    <glyph glyph-name="space.sixperem" horiz-adv-x="166" 
 />
    <glyph glyph-name="space.punctuation" horiz-adv-x="250" 
 />
    <glyph glyph-name="celsius" horiz-adv-x="1166" 
d="M819 -12q-159 0 -267 106t-108 266t108.5 266t266.5 106q232 0 319 -190l-141 -77q-65 118 -178 118q-90 0 -150 -64.5t-60 -158.5q0 -95 60 -159t150 -64q128 0 183 129l146 -57q-32 -103 -116.5 -162t-212.5 -59zM31 559q0 74 50 123.5t123 49.5t123 -49.5t50 -123.5
q0 -71 -50.5 -121.5t-122.5 -50.5q-73 0 -123 49t-50 123zM138 559q0 -29 19 -47.5t47 -18.5t46.5 19t18.5 47q0 30 -18.5 49t-46.5 19t-47 -19t-19 -49z" />
    <glyph glyph-name="farenheit" horiz-adv-x="932" 
d="M476 0v720h421v-141h-268v-132h237v-141h-237v-306h-153zM31 559q0 74 50 123.5t123 49.5t123 -49.5t50 -123.5q0 -71 -50.5 -121.5t-122.5 -50.5q-73 0 -123 49t-50 123zM138 559q0 -29 19 -47.5t47 -18.5t46.5 19t18.5 47q0 30 -18.5 49t-46.5 19t-47 -19t-19 -49z" />
    <glyph glyph-name="permillion" horiz-adv-x="1849" 
d="M36 539q0 83 56.5 138t139.5 55q82 0 138 -55t56 -138q0 -79 -56.5 -135t-137.5 -56q-83 0 -139.5 55t-56.5 136zM153 539q0 -34 22.5 -57.5t56.5 -23.5q32 0 55 24.5t23 56.5q0 36 -22.5 60t-55.5 24q-34 0 -56.5 -24t-22.5 -60zM572 179q0 83 56.5 138t139.5 55
q82 0 138 -55t56 -138q0 -79 -56.5 -135t-137.5 -56q-83 0 -139.5 55t-56.5 136zM689 179q0 -34 22.5 -57.5t56.5 -23.5q32 0 55 24.5t23 56.5q0 36 -22.5 60t-55.5 24q-34 0 -56.5 -24t-22.5 -60zM288 0l298 720h125l-296 -720h-127zM997 179q0 83 56.5 138t139.5 55
q82 0 138 -55t56 -138q0 -79 -56.5 -135t-137.5 -56q-83 0 -139.5 55t-56.5 136zM1114 179q0 -34 22.5 -57.5t56.5 -23.5q32 0 55 24.5t23 56.5q0 36 -22.5 60t-55.5 24q-34 0 -56.5 -24t-22.5 -60zM1422 179q0 83 56.5 138t139.5 55q82 0 138 -55t56 -138q0 -79 -56.5 -135
t-137.5 -56q-83 0 -139.5 55t-56.5 136zM1539 179q0 -34 22.5 -57.5t56.5 -23.5q32 0 55 24.5t23 56.5q0 36 -22.5 60t-55.5 24q-34 0 -56.5 -24t-22.5 -60z" />
    <glyph glyph-name="plusinferior" horiz-adv-x="413" 
d="M253 148h122v-97h-122v-122h-96v122h-123v97h123v123h96v-123z" />
    <glyph glyph-name="minusinferior" horiz-adv-x="413" 
d="M34 148h341v-97h-341v97z" />
    <glyph glyph-name="equalinferior" horiz-adv-x="413" 
d="M34 222h341v-98h-341v98zM34 75h341v-98h-341v98z" />
    <glyph glyph-name="fi.trk" horiz-adv-x="632" 
d="M252 541h97v-132h-97v-409h-146v409h-97v132h97v8q0 83 46.5 133t133.5 50q37 0 73 -9l-12 -126q-24 4 -37 4q-58 0 -58 -56v-4zM568 541v-541h-146v541h146zM407 652q0 37 24.5 57.5t63.5 20.5t63.5 -20.5t24.5 -57.5t-24.5 -57.5t-63.5 -20.5t-63.5 20.5t-24.5 57.5z
" />
    </font>
</defs>
</svg>
