<?xml version="1.0" standalone="no"?>
<!DOCTYPE svg PUBLIC "-//W3C//DTD SVG 1.1//EN" "http://www.w3.org/Graphics/SVG/1.1/DTD/svg11.dtd" >
<svg>
<metadata>
Created by FontForge 20090622 at Tue Jun 13 10:45:29 2017
 By deploy user
Copyright (c) 2014 by Nonpareille / Matthieu Cortat. All rights reserved.
</metadata>
<defs>
<font id="Basetica-Regular" horiz-adv-x="564" >
  <font-face 
    font-family="Basetica-Regular"
    font-weight="400"
    font-stretch="normal"
    units-per-em="1000"
    panose-1="2 13 5 3 3 0 0 0 0 4"
    ascent="803"
    descent="-197"
    x-height="541"
    cap-height="720"
    bbox="-77 -295 1717 1018"
    underline-thickness="50"
    underline-position="-100"
    unicode-range="U+000D-U+FB03"
  />
<missing-glyph horiz-adv-x="235" 
 />
    <glyph glyph-name="ff" unicode="ff" horiz-adv-x="618" 
d="M499 580v-39h103v-84h-103v-457h-94v457h-192v-457h-94v457h-103v84h103v41q0 66 37.5 108t108.5 42q37 0 63 -8l-10 -85q-23 5 -45 5q-60 0 -60 -64v-39h192v41q0 66 37.5 108t108.5 42q37 0 63 -8l-10 -85q-23 5 -45 5q-60 0 -60 -64z" />
    <glyph glyph-name="fi" unicode="fi" horiz-adv-x="567" 
d="M498 541v-541h-94v457h-191v-457h-94v457h-103v84h103v41q0 66 37.5 108t108.5 42q37 0 63 -8l-10 -85q-23 5 -45 5q-60 0 -60 -64v-39h285zM394 673q0 25 16 41t41 16t41 -16t16 -41t-16 -41t-41 -16t-41 16t-16 41z" />
    <glyph glyph-name="fl" unicode="fl" 
d="M213 580v-39h103v-84h-103v-457h-94v457h-103v84h103v41q0 66 37.5 108t108.5 42q37 0 63 -8l-10 -85q-23 5 -45 5q-60 0 -60 -64zM495 720v-720h-94v720h94z" />
    <glyph glyph-name="ffi" unicode="ffi" horiz-adv-x="854" 
d="M785 541v-541h-94v457h-192v-457h-94v457h-192v-457h-94v457h-103v84h103v41q0 66 37.5 108t108.5 42q37 0 63 -8l-10 -85q-23 5 -45 5q-60 0 -60 -64v-39h192v41q0 66 37.5 108t108.5 42q37 0 63 -8l-10 -85q-23 5 -45 5q-60 0 -60 -64v-39h286zM681 673q0 25 15.5 41
t41.5 16t41.5 -16t15.5 -41t-15.5 -41t-41.5 -16t-41.5 16t-15.5 41z" />
    <glyph glyph-name="fj" unicode="fj" horiz-adv-x="567" 
d="M498 541v-690l-94 -20v626h-191v-457h-94v457h-103v84h103v41q0 66 37.5 108t108.5 42q37 0 63 -8l-10 -85q-23 5 -45 5q-60 0 -60 -64v-39h285zM394 673q0 25 16 41t41 16t41 -16t16 -41t-16 -41t-41 -16t-41 16t-16 41z" />
    <glyph glyph-name="ft" unicode="ft" horiz-adv-x="634" 
d="M618 457h-103v-457h-94v457h-208v-457h-94v457h-103v84h103v41q0 66 37.5 108t108.5 42q37 0 63 -8l-10 -85q-23 5 -45 5q-60 0 -60 -64v-39h208v110l94 20v-130h103v-84z" />
    <glyph glyph-name="ffj" unicode="ffj" horiz-adv-x="854" 
d="M785 541v-690l-94 -20v626h-192v-457h-94v457h-192v-457h-94v457h-103v84h103v41q0 66 37.5 108t108.5 42q37 0 63 -8l-10 -85q-23 5 -45 5q-60 0 -60 -64v-39h192v41q0 66 37.5 108t108.5 42q37 0 63 -8l-10 -85q-23 5 -45 5q-60 0 -60 -64v-39h286zM681 673
q0 25 15.5 41t41.5 16t41.5 -16t15.5 -41t-15.5 -41t-41.5 -16t-41.5 16t-15.5 41z" />
    <glyph glyph-name="fft" unicode="fft" horiz-adv-x="920" 
d="M904 457h-103v-457h-94v457h-208v-457h-94v457h-192v-457h-94v457h-103v84h103v41q0 66 37.5 108t108.5 42q37 0 63 -8l-10 -85q-23 5 -45 5q-60 0 -60 -64v-39h192v41q0 66 37.5 108t108.5 42q37 0 63 -8l-10 -85q-23 5 -45 5q-60 0 -60 -64v-39h208v110l94 20v-130h103
v-84z" />
    <glyph glyph-name="tt" unicode="tt" horiz-adv-x="620" 
d="M604 457h-103v-457h-94v457h-194v-457h-94v457h-103v84h103v110l94 20v-130h194v110l94 20v-130h103v-84z" />
    <glyph glyph-name=".notdef" horiz-adv-x="235" 
 />
    <glyph glyph-name=".null" horiz-adv-x="0" 
 />
    <glyph glyph-name="nonmarkingreturn" horiz-adv-x="333" 
 />
    <glyph glyph-name="NULL" horiz-adv-x="0" 
 />
    <glyph glyph-name="NULL" horiz-adv-x="0" 
 />
    <glyph glyph-name="CR" unicode="&#xd;" horiz-adv-x="235" 
 />
    <glyph glyph-name="space" unicode=" " horiz-adv-x="235" 
 />
    <glyph glyph-name="exclam" unicode="!" horiz-adv-x="235" 
d="M55 50q0 28 17 45.5t45 17.5q29 0 46 -17.5t17 -45.5t-17.5 -45t-45.5 -17t-45 17t-17 45zM66 519v201h103v-201l-29 -335h-45z" />
    <glyph glyph-name="quotedbl" unicode="&#x22;" horiz-adv-x="396" 
d="M169 720l-32 -242h-40l-32 242h104zM331 720l-32 -242h-40l-32 242h104z" />
    <glyph glyph-name="numbersign" unicode="#" horiz-adv-x="626" 
d="M135 0h-85l52 189h-77v79h99l54 194h-104v79h126l50 179h85l-50 -179h155l50 179h85l-50 -179h80v-79h-102l-54 -194h107v-79h-129l-52 -189h-85l52 189h-155zM263 462l-54 -194h155l54 194h-155z" />
    <glyph glyph-name="dollar" unicode="$" horiz-adv-x="581" 
d="M273 -169v159q-96 9 -156.5 60t-84.5 133l90 40q37 -123 151 -138v243l-62 25q-146 59 -146 182q0 78 58 134t150 62v147h65v-149q129 -17 193 -147l-85 -42q-44 75 -108 93v-224l61 -24q76 -30 114 -77t38 -123q0 -79 -56 -134t-157 -62v-158h-65zM338 304v-220
q52 5 81 31t29 69t-24 69t-86 51zM251 443l22 -9v202q-49 -4 -77.5 -31.5t-28.5 -65.5q0 -33 19.5 -55.5t64.5 -40.5z" />
    <glyph glyph-name="percent" unicode="%" horiz-adv-x="943" 
d="M41 539q0 84 54.5 138.5t135.5 54.5t135.5 -55t54.5 -138q0 -79 -55 -135t-135 -56q-81 0 -135.5 54t-54.5 137zM120 539q0 -50 32 -83.5t79 -33.5q46 0 78 34.5t32 82.5q0 51 -31.5 84.5t-78.5 33.5t-79 -33.5t-32 -84.5zM577 720h85l-298 -720h-85zM523 179
q0 84 54.5 138.5t135.5 54.5t135.5 -55t54.5 -138q0 -79 -55 -135t-135 -56q-81 0 -135.5 54t-54.5 137zM602 179q0 -50 32 -83.5t79 -33.5q46 0 78 34.5t32 82.5q0 51 -31.5 84.5t-78.5 33.5t-79 -33.5t-32 -84.5z" />
    <glyph glyph-name="ampersand" unicode="&#x26;" horiz-adv-x="653" 
d="M297 642q-36 0 -59.5 -23.5t-23.5 -60.5q0 -28 14 -51.5t47 -60.5q53 25 76.5 50.5t23.5 64.5q0 35 -22 58t-56 23zM253 -12q-101 0 -162.5 56t-61.5 151q0 140 156 219q-63 76 -63 148q0 73 51 121.5t125 48.5q73 0 121 -48.5t48 -122.5q0 -59 -34.5 -101t-106.5 -76
l135 -157q32 56 41 133h92q-9 -107 -72 -206l130 -154h-120l-69 83q-44 -46 -93 -70.5t-117 -24.5zM253 79q88 0 152 72l-168 198q-110 -50 -110 -153q0 -52 34.5 -84.5t91.5 -32.5z" />
    <glyph glyph-name="quotesingle" unicode="'" horiz-adv-x="235" 
d="M169 720l-32 -242h-40l-32 242h104z" />
    <glyph glyph-name="parenleft" unicode="(" horiz-adv-x="320" 
d="M82 277q0 240 128 443h87q-121 -204 -121 -443q0 -242 121 -446h-87q-128 201 -128 446z" />
    <glyph glyph-name="parenright" unicode=")" horiz-adv-x="320" 
d="M238 277q0 -245 -128 -446h-87q121 204 121 446q0 239 -121 443h87q128 -203 128 -443z" />
    <glyph glyph-name="asterisk" unicode="*" horiz-adv-x="444" 
d="M308 356l-87 116l-85 -116l-58 41l88 118l-141 46l22 68l139 -47v138h72v-137l139 46l22 -68l-142 -46l89 -118z" />
    <glyph glyph-name="plus" unicode="+" 
d="M323 401h184v-82h-184v-184h-82v184h-184v82h184v184h82v-184z" />
    <glyph glyph-name="comma" unicode="," horiz-adv-x="235" 
d="M49 -151l26 253h109l-80 -253h-55z" />
    <glyph glyph-name="hyphen" unicode="-" horiz-adv-x="235" 
d="M217 313v-84h-200v84h200z" />
    <glyph glyph-name="period" unicode="." horiz-adv-x="235" 
d="M55 50q0 28 17 45.5t45 17.5q29 0 46 -17.5t17 -45.5t-17.5 -45t-45.5 -17t-45 17t-17 45z" />
    <glyph glyph-name="slash" unicode="/" horiz-adv-x="373" 
d="M275 720h85l-262 -720h-85z" />
    <glyph glyph-name="zero" unicode="0" 
d="M430 360q0 139 -40 210t-108 71t-108 -71t-40 -210t40 -210t108 -71t108 71t40 210zM530 360q0 -210 -98 -310q-62 -62 -150 -62t-150 62q-98 100 -98 310t98 310q62 62 150 62t150 -62q98 -100 98 -310z" />
    <glyph glyph-name="one" unicode="1" 
d="M115 535v69h16q65 0 108.5 29.5t57.5 86.5h70v-720h-98v535h-154z" />
    <glyph glyph-name="two" unicode="2" 
d="M514 90v-90h-463v30q0 63 16 107q15 41 43 73t76 67l104 76q65 47 88.5 79.5t23.5 81.5q0 55 -35.5 90.5t-87.5 35.5q-100 0 -147 -118l-79 40q27 77 86.5 123.5t142.5 46.5q95 0 157 -63t62 -155q0 -72 -30.5 -119t-108.5 -102l-126 -88q-74 -52 -78 -115h356z" />
    <glyph glyph-name="three" unicode="3" 
d="M282 732q88 0 144 -55.5t56 -141.5q0 -106 -97 -155q55 -20 89 -69t34 -114q0 -95 -63 -152t-163 -57q-154 0 -227 132l75 54q28 -49 63.5 -71.5t86.5 -22.5q59 0 94.5 33.5t35.5 88.5q0 88 -76 121q-29 13 -97 13h-38v84h20q74 0 107 14q62 26 62 97q0 47 -30.5 78.5
t-77.5 31.5q-77 0 -136 -86l-71 50q77 127 209 127z" />
    <glyph glyph-name="four" unicode="4" 
d="M357 589l-232 -322h232v322zM537 267v-87h-85v-180h-95v180h-325v96l321 444h99v-453h85z" />
    <glyph glyph-name="five" unicode="5" 
d="M302 472q90 0 155 -67.5t65 -172.5q0 -104 -70 -174t-175 -70q-82 0 -141.5 46t-85.5 123l79 42q47 -120 147 -120q65 0 106.5 43t41.5 109q0 70 -41 111.5t-105 41.5q-74 0 -132 -70l-79 17l36 389h369v-91h-294l-22 -224q62 67 146 67z" />
    <glyph glyph-name="six" unicode="6" 
d="M160 225q0 -58 39.5 -102.5t99.5 -44.5t98 41.5t38 103.5q0 65 -38.5 105.5t-97.5 40.5q-60 0 -99.5 -39.5t-39.5 -104.5zM312 732q118 0 197 -99l-63 -65q-34 38 -65 56t-71 18q-66 0 -111 -63q-52 -75 -55 -222q25 45 69.5 73t101.5 28q93 0 155 -65.5t62 -167.5
q0 -99 -66.5 -168t-165.5 -69q-112 0 -179 80q-74 90 -74 270q0 209 90 313q69 81 175 81z" />
    <glyph glyph-name="seven" unicode="7" 
d="M46 630v90h484v-83q-231 -273 -254 -637h-113q12 176 86 339t188 291h-391z" />
    <glyph glyph-name="eight" unicode="8" 
d="M282 -12q-102 0 -168 59t-66 154q0 64 32.5 110t82.5 70q-89 54 -89 152q0 85 60 142t148 57q87 0 147 -57.5t60 -141.5q0 -101 -89 -153q50 -21 83 -67.5t33 -110.5q0 -96 -66.5 -155t-167.5 -59zM144 205q0 -54 38 -91t100 -37q61 0 99.5 38t38.5 90q0 55 -37.5 92.5
t-100.5 37.5q-64 0 -101 -37.5t-37 -92.5zM166 533q0 -48 31 -80.5t85 -32.5q52 0 83.5 33t31.5 80t-32 79t-83 32q-52 0 -84 -32t-32 -79z" />
    <glyph glyph-name="nine" unicode="9" 
d="M403 495q0 58 -39.5 102.5t-99.5 44.5t-98 -41.5t-38 -103.5q0 -65 38.5 -105.5t97.5 -40.5q60 0 99.5 39.5t39.5 104.5zM251 -12q-118 0 -197 99l63 65q34 -38 65 -56t71 -18q66 0 111 63q52 75 55 222q-25 -45 -69.5 -73t-101.5 -28q-93 0 -155 65.5t-62 167.5
q0 99 66.5 168t165.5 69q112 0 179 -80q74 -90 74 -270q0 -209 -90 -313q-69 -81 -175 -81z" />
    <glyph glyph-name="colon" unicode=":" horiz-adv-x="235" 
d="M55 50q0 28 17 45.5t45 17.5q29 0 46 -17.5t17 -45.5t-17.5 -45t-45.5 -17t-45 17t-17 45zM55 490q0 28 17 45.5t45 17.5q29 0 46 -17.5t17 -45.5t-17.5 -45t-45.5 -17t-45 17t-17 45z" />
    <glyph glyph-name="semicolon" unicode=";" horiz-adv-x="235" 
d="M49 -151l26 253h109l-80 -253h-55zM55 490q0 28 17 45.5t45 17.5q29 0 46 -17.5t17 -45.5t-17.5 -45t-45.5 -17t-45 17t-17 45z" />
    <glyph glyph-name="less" unicode="&#x3c;" 
d="M507 136l-450 197v53l450 197v-93l-320 -130l320 -130v-94z" />
    <glyph glyph-name="equal" unicode="=" 
d="M57 501h450v-82h-450v82zM57 301h450v-82h-450v82z" />
    <glyph glyph-name="greater" unicode="&#x3e;" 
d="M507 333l-450 -197v94l320 130l-320 130v93l450 -197v-53z" />
    <glyph glyph-name="question" unicode="?" horiz-adv-x="471" 
d="M254 184h-52q-8 34 -8 57q0 74 63 138l36 37q30 30 41.5 55t11.5 59q0 45 -30.5 78.5t-76.5 33.5q-86 0 -129 -102l-75 39q25 70 79 111.5t126 41.5q90 0 146 -58t56 -143q0 -51 -18 -89t-60 -78l-33 -32q-42 -40 -58 -72.5t-19 -75.5zM169 50q0 28 17 45.5t45 17.5
q29 0 46 -17.5t17 -45.5t-17.5 -45t-45.5 -17t-45 17t-17 45z" />
    <glyph glyph-name="at" unicode="@" horiz-adv-x="961" 
d="M693 -44l31 -70q-100 -56 -227 -56q-201 0 -326.5 125.5t-125.5 325.5q0 192 127.5 321.5t313.5 129.5q194 0 313 -118t119 -305q0 -138 -57.5 -206.5t-135.5 -68.5q-108 0 -137 93q-56 -93 -150 -93q-66 0 -106 34.5t-40 91.5q0 105 140 139l102 24q26 6 36.5 16.5
t10.5 32.5q0 37 -23 58t-65 21q-88 0 -101 -81l-85 9q8 65 58 108.5t129 43.5q55 0 95.5 -21t59.5 -56t19 -101v-175q0 -30 15 -47.5t43 -17.5q46 0 74.5 49.5t28.5 146.5q0 153 -96.5 247t-246.5 94q-151 0 -251 -107t-100 -262q0 -169 101.5 -269.5t263.5 -100.5
q105 0 193 45zM581 256v22q-14 -11 -50 -21l-80 -21q-72 -19 -72 -73q0 -23 19.5 -38t52.5 -15q52 0 91 38t39 108z" />
    <glyph glyph-name="A" unicode="A" horiz-adv-x="694" 
d="M575 0l-68 177h-321l-70 -177h-105l292 720h99l281 -720h-108zM350 582l-130 -315h253z" />
    <glyph glyph-name="B" unicode="B" horiz-adv-x="607" 
d="M172 91h162q64 0 98 31.5t34 87.5q0 57 -36.5 88.5t-105.5 31.5h-152v-239zM314 629h-142v-208h137q55 0 87 28t32 76q0 49 -29.5 76.5t-84.5 27.5zM338 0h-265v720h250q96 0 151.5 -52.5t55.5 -136.5q0 -102 -95 -147q60 -14 97 -61t37 -116q0 -93 -61 -150t-170 -57z
" />
    <glyph glyph-name="C" unicode="C" horiz-adv-x="762" 
d="M406 637q-111 0 -185.5 -79t-74.5 -198q0 -118 75 -197.5t185 -79.5q164 0 232 164l92 -41q-37 -101 -118 -159.5t-206 -58.5q-156 0 -260.5 105.5t-104.5 266.5q0 160 105.5 266t259.5 106q217 0 312 -188l-87 -51q-79 144 -225 144z" />
    <glyph glyph-name="D" unicode="D" horiz-adv-x="685" 
d="M73 0v720h209q163 0 262.5 -98t99.5 -262q0 -157 -101.5 -258.5t-266.5 -101.5h-203zM172 629v-538h98q125 0 198 74.5t73 194.5q0 123 -71.5 196t-191.5 73h-106z" />
    <glyph glyph-name="E" unicode="E" horiz-adv-x="538" 
d="M73 0v720h409v-91h-310v-208h301v-91h-301v-239h319v-91h-418z" />
    <glyph glyph-name="F" unicode="F" horiz-adv-x="510" 
d="M73 0v720h399v-91h-300v-208h271v-91h-271v-330h-99z" />
    <glyph glyph-name="G" unicode="G" horiz-adv-x="789" 
d="M406 732q199 0 300 -166l-85 -54q-80 125 -215 125q-111 0 -185.5 -79t-74.5 -198t75.5 -198t191.5 -79q95 0 157 55t70 145h-273v90h367v-373h-90v109q-36 -58 -98 -89.5t-141 -31.5q-154 0 -259 106t-105 266t105.5 266t259.5 106z" />
    <glyph glyph-name="H" unicode="H" horiz-adv-x="718" 
d="M546 0v330h-374v-330h-99v720h99v-299h374v299h99v-720h-99z" />
    <glyph glyph-name="I" unicode="I" horiz-adv-x="245" 
d="M172 720v-720h-99v720h99z" />
    <glyph glyph-name="J" unicode="J" horiz-adv-x="389" 
d="M111 82q114 0 114 125v513h99v-528q0 -95 -55 -149.5t-150 -54.5q-54 0 -91 11l6 93q40 -10 77 -10z" />
    <glyph glyph-name="K" unicode="K" horiz-adv-x="675" 
d="M664 0h-130l-242 340l-120 -131v-209h-99v720h99v-375l336 375h132l-278 -304z" />
    <glyph glyph-name="L" unicode="L" horiz-adv-x="500" 
d="M73 0v720h99v-629h299v-91h-398z" />
    <glyph glyph-name="M" unicode="M" horiz-adv-x="849" 
d="M185 720l237 -406l241 406h113v-720h-99v559l-221 -365h-77l-213 368v-562h-93v720h112z" />
    <glyph glyph-name="N" unicode="N" horiz-adv-x="717" 
d="M540 0l-374 552v-552h-93v720h100l378 -557v557h93v-720h-104z" />
    <glyph glyph-name="O" unicode="O" horiz-adv-x="812" 
d="M145 360q0 -118 75 -197.5t186 -79.5q109 0 185 81.5t76 195.5q0 118 -75 197.5t-186 79.5t-186 -79t-75 -198zM41 360q0 161 105 266.5t260 105.5t260 -105.5t105 -266.5q0 -155 -106 -263.5t-259 -108.5q-155 0 -260 105.5t-105 266.5z" />
    <glyph glyph-name="P" unicode="P" horiz-adv-x="612" 
d="M337 629h-165v-244h161q66 0 103 33.5t37 89.5t-35 88.5t-101 32.5zM334 294h-162v-294h-99v720h268q111 0 173.5 -59t62.5 -153q0 -98 -63 -156t-180 -58z" />
    <glyph glyph-name="Q" unicode="Q" horiz-adv-x="812" 
d="M41 360q0 161 105 266.5t260 105.5t260 -105.5t105 -266.5q0 -91 -39.5 -170t-108.5 -131l74 -134l-79 -43l-74 133q-67 -27 -138 -27q-155 0 -260 105.5t-105 266.5zM497 290l78 -140q92 84 92 210q0 118 -75 197.5t-186 79.5t-186 -79t-75 -198q0 -118 75 -197.5
t186 -79.5q50 0 92 18l-80 146z" />
    <glyph glyph-name="R" unicode="R" horiz-adv-x="605" 
d="M308 312h-136v-312h-99v720h255q107 0 166.5 -56.5t59.5 -147.5q0 -138 -146 -187l169 -329h-115zM324 629h-152v-226h145q64 0 98.5 30.5t34.5 82.5q0 53 -32.5 83t-93.5 30z" />
    <glyph glyph-name="S" unicode="S" horiz-adv-x="581" 
d="M252 443l148 -58q76 -30 114 -77.5t38 -122.5q0 -84 -63 -140.5t-175 -56.5q-114 0 -183 53t-96 143l91 39q46 -140 185 -140q64 0 101 26.5t37 74.5q0 42 -22.5 68.5t-78.5 47.5l-136 53q-146 55 -146 182q0 83 63 140t159 57q159 0 232 -151l-84 -45q-58 101 -146 101
q-55 0 -88.5 -28t-33.5 -70q0 -34 20 -56.5t64 -39.5z" />
    <glyph glyph-name="T" unicode="T" horiz-adv-x="604" 
d="M351 629v-629h-99v629h-227v91h554v-91h-228z" />
    <glyph glyph-name="U" unicode="U" horiz-adv-x="678" 
d="M518 720h93v-462q0 -127 -71 -198.5t-201 -71.5q-124 0 -198 73t-74 201v458h99v-453q0 -90 47.5 -137t129.5 -47q84 0 129.5 45.5t45.5 131.5v460z" />
    <glyph glyph-name="V" unicode="V" horiz-adv-x="647" 
d="M326 138l205 582h105l-261 -720h-106l-258 720h109z" />
    <glyph glyph-name="W" unicode="W" horiz-adv-x="1031" 
d="M750 154l162 566h105l-216 -720h-111l-173 573l-184 -573h-110l-209 720h108l162 -566l179 566h111z" />
    <glyph glyph-name="X" unicode="X" horiz-adv-x="664" 
d="M511 720h115l-232 -354l252 -366h-126l-196 295l-186 -295h-120l247 376l-235 344h123l184 -274z" />
    <glyph glyph-name="Y" unicode="Y" horiz-adv-x="621" 
d="M311 402l192 318h110l-256 -418v-302h-99v302l-250 418h112z" />
    <glyph glyph-name="Z" unicode="Z" horiz-adv-x="650" 
d="M60 629v91h541v-88l-432 -541h452v-91h-588v79l441 550h-414z" />
    <glyph glyph-name="bracketleft" unicode="[" horiz-adv-x="320" 
d="M170 -93h127v-76h-209v889h209v-76h-127v-737z" />
    <glyph glyph-name="backslash" unicode="\" horiz-adv-x="373" 
d="M13 720h85l262 -720h-85z" />
    <glyph glyph-name="bracketright" unicode="]" horiz-adv-x="320" 
d="M23 -93h127v737h-127v76h209v-889h-209v76z" />
    <glyph glyph-name="asciicircum" unicode="^" horiz-adv-x="500" 
d="M27 270l197 450h52l197 -450h-93l-130 320l-129 -320h-94z" />
    <glyph glyph-name="underscore" unicode="_" horiz-adv-x="500" 
d="M0 -169v72h500v-72h-500z" />
    <glyph glyph-name="grave" unicode="`" horiz-adv-x="500" 
d="M273 720l60 -136h-71l-100 136h111z" />
    <glyph glyph-name="a" unicode="a" horiz-adv-x="530" 
d="M369 239v28q-17 -12 -63 -24l-89 -24q-87 -23 -87 -85q0 -30 22.5 -48t61.5 -18q62 0 108.5 44.5t46.5 126.5zM267 553q126 0 174 -87q22 -40 22 -115v-247q0 -33 27 -33q6 0 20 2v-80q-18 -5 -37 -5q-92 0 -102 88l-2 16q-60 -104 -169 -104q-74 0 -118.5 39t-44.5 103
q0 62 40 100t124 57l110 25q32 7 45 20t13 41q0 45 -28 69.5t-77 24.5q-102 0 -118 -92l-92 9q9 72 66.5 120.5t146.5 48.5z" />
    <glyph glyph-name="b" unicode="b" horiz-adv-x="643" 
d="M505 270q0 84 -48 140t-124 56q-77 0 -125 -52t-48 -144q0 -88 49 -142t125 -54q77 0 124 54.5t47 141.5zM603 270q0 -124 -73 -203t-181 -79q-120 0 -186 98v-86h-94v720h94v-273q69 106 188 106q106 0 179 -79.5t73 -203.5z" />
    <glyph glyph-name="c" unicode="c" horiz-adv-x="584" 
d="M318 465q-78 0 -130 -55.5t-52 -139.5t52 -139t130 -55q112 0 161 115l83 -38q-28 -76 -89.5 -120.5t-155.5 -44.5q-118 0 -198 80.5t-80 201.5q0 122 80.5 202.5t197.5 80.5q165 0 235 -140l-79 -50q-54 102 -155 102z" />
    <glyph glyph-name="d" unicode="d" horiz-adv-x="643" 
d="M138 270q0 -86 47.5 -141t123.5 -55q77 0 125.5 53.5t48.5 142.5q0 91 -48.5 144t-125.5 53q-76 0 -123.5 -55.5t-47.5 -141.5zM39 270q0 125 74.5 204t180.5 79q117 0 186 -103v270h94v-720h-94v88q-66 -100 -189 -100q-107 0 -179.5 79.5t-72.5 202.5z" />
    <glyph glyph-name="e" unicode="e" horiz-adv-x="600" 
d="M139 319h326q-9 68 -51 107.5t-108 39.5q-65 0 -110 -41.5t-57 -105.5zM558 244h-421q5 -76 53 -122.5t124 -46.5q103 0 139 92l92 -15q-22 -75 -83.5 -119.5t-147.5 -44.5q-121 0 -197.5 77t-76.5 205q0 124 78 203.5t188 79.5q115 0 185 -77.5t70 -189.5q0 -22 -3 -42z
" />
    <glyph glyph-name="f" unicode="f" horiz-adv-x="332" 
d="M213 580v-39h103v-84h-103v-457h-94v457h-103v84h103v41q0 66 37.5 108t108.5 42q37 0 63 -8l-10 -85q-23 5 -45 5q-60 0 -60 -64z" />
    <glyph glyph-name="g" unicode="g" horiz-adv-x="629" 
d="M560 541v-469q0 -118 -66.5 -185t-188.5 -67q-107 0 -168.5 46.5t-77.5 117.5l94 13q34 -92 152 -92q79 0 120 43.5t41 125.5v40q-61 -96 -177 -96q-106 0 -176.5 75.5t-70.5 191.5q0 118 72 193t174 75q114 0 178 -99v87h94zM141 285q0 -80 45.5 -131t118.5 -51
t119 49.5t46 132.5q0 84 -45.5 133t-119.5 49q-73 0 -118.5 -51.5t-45.5 -130.5z" />
    <glyph glyph-name="h" unicode="h" horiz-adv-x="565" 
d="M326 553q66 0 110 -35t58 -92q8 -34 8 -108v-318h-94v300q0 84 -24.5 124.5t-87.5 40.5q-69 0 -101 -43.5t-32 -130.5v-291h-94v720h94v-262q57 95 163 95z" />
    <glyph glyph-name="i" unicode="i" horiz-adv-x="232" 
d="M163 541v-541h-94v541h94zM59 673q0 25 15.5 41t41.5 16t41.5 -16t15.5 -41t-15.5 -41t-41.5 -16t-41.5 16t-15.5 41z" />
    <glyph glyph-name="j" unicode="j" horiz-adv-x="232" 
d="M163 541v-690l-94 -20v710h94zM59 673q0 25 15.5 41t41.5 16t41.5 -16t15.5 -41t-15.5 -41t-41.5 -16t-41.5 16t-15.5 41z" />
    <glyph glyph-name="k" unicode="k" horiz-adv-x="545" 
d="M537 0h-123l-166 234l-85 -96v-138h-94v720h94v-448l236 269h123l-209 -233z" />
    <glyph glyph-name="l" unicode="l" horiz-adv-x="232" 
d="M163 720v-720h-94v720h94z" />
    <glyph glyph-name="m" unicode="m" horiz-adv-x="860" 
d="M630 553q94 0 130.5 -58.5t36.5 -161.5v-333h-94v315q0 79 -22 114.5t-79 35.5q-122 0 -122 -174v-291h-94v315q0 79 -22 114.5t-79 35.5q-122 0 -122 -174v-291h-94v541h94v-80q56 92 152 92q56 0 94.5 -29t55.5 -76q27 48 69.5 76.5t95.5 28.5z" />
    <glyph glyph-name="n" unicode="n" horiz-adv-x="565" 
d="M326 553q66 0 110 -35t58 -92q8 -34 8 -108v-318h-94v300q0 86 -24 125.5t-88 39.5q-69 0 -101 -43.5t-32 -130.5v-291h-94v541h94v-83q57 95 163 95z" />
    <glyph glyph-name="o" unicode="o" horiz-adv-x="638" 
d="M39 270q0 122 80.5 202.5t198.5 80.5q119 0 199.5 -80.5t80.5 -202.5q0 -117 -81 -199.5t-199 -82.5t-198.5 80.5t-80.5 201.5zM136 270q0 -84 52.5 -139t130.5 -55q77 0 129.5 57t52.5 137q0 84 -52 139.5t-130 55.5t-130.5 -55.5t-52.5 -139.5z" />
    <glyph glyph-name="p" unicode="p" horiz-adv-x="643" 
d="M505 270q0 84 -48 140t-124 56q-77 0 -125 -52t-48 -144q0 -88 49 -142t125 -54q77 0 124 54.5t47 141.5zM603 270q0 -124 -73 -203t-181 -79q-120 0 -186 98v-255h-94v710h94v-94q69 106 188 106q106 0 179 -79.5t73 -203.5z" />
    <glyph glyph-name="q" unicode="q" horiz-adv-x="643" 
d="M138 270q0 -86 47.5 -141t123.5 -55q77 0 125.5 53.5t48.5 142.5q0 91 -48.5 144t-125.5 53q-76 0 -123.5 -55.5t-47.5 -141.5zM39 270q0 125 74.5 204t180.5 79q117 0 186 -103v91h94v-710h-94v257q-66 -100 -189 -100q-107 0 -179.5 79.5t-72.5 202.5z" />
    <glyph glyph-name="r" unicode="r" horiz-adv-x="365" 
d="M351 551v-98q-19 3 -42 3q-111 0 -138 -114q-8 -34 -8 -99v-243h-94v541h94v-105q22 55 62.5 86t93.5 31q21 0 32 -2z" />
    <glyph glyph-name="s" unicode="s" horiz-adv-x="443" 
d="M239 74q41 0 63 17.5t22 46.5q0 43 -61 71l-99 46q-112 52 -112 148q0 60 47 105t120 45q106 0 171 -93l-69 -57q-47 64 -103 64q-34 0 -55 -17.5t-21 -43.5q0 -40 51 -63l111 -51q112 -52 112 -153q0 -68 -49.5 -109.5t-128.5 -41.5q-153 0 -209 127l77 50
q44 -91 133 -91z" />
    <glyph glyph-name="t" unicode="t" horiz-adv-x="332" 
d="M316 457h-103v-457h-94v457h-103v84h103v110l94 20v-130h103v-84z" />
    <glyph glyph-name="u" unicode="u" horiz-adv-x="565" 
d="M241 -12q-67 0 -112 36t-58 94q-8 32 -8 117v306h94v-306q0 -85 23 -122.5t88 -37.5q134 0 134 175v291h94v-541h-94v82q-26 -43 -67.5 -68.5t-93.5 -25.5z" />
    <glyph glyph-name="v" unicode="v" horiz-adv-x="539" 
d="M430 541h102l-216 -541h-98l-211 541h106l156 -414z" />
    <glyph glyph-name="w" unicode="w" horiz-adv-x="845" 
d="M736 541h102l-182 -541h-100l-135 406l-143 -406h-103l-168 541h105l119 -404l141 404h105l132 -404z" />
    <glyph glyph-name="x" unicode="x" horiz-adv-x="542" 
d="M400 541h115l-183 -264l197 -277h-120l-144 206l-132 -206h-120l193 284l-183 257h120l132 -189z" />
    <glyph glyph-name="y" unicode="y" horiz-adv-x="550" 
d="M440 541h103l-302 -710h-105l90 198l-219 512h108l164 -396z" />
    <glyph glyph-name="z" unicode="z" horiz-adv-x="522" 
d="M47 457v84h435v-72l-320 -385h335v-84h-471v65l324 392h-303z" />
    <glyph glyph-name="braceleft" unicode="{" horiz-adv-x="320" 
d="M113 275q41 -13 58.5 -39t17.5 -75v-184q0 -70 66 -70h42v-76h-56q-58 0 -96 38t-38 107v174q0 47 -19 70t-74 23v65q55 0 74 23t19 70v173q0 70 38 108t96 38h56v-76h-42q-66 0 -66 -70v-184q0 -49 -17.5 -75t-58.5 -40z" />
    <glyph glyph-name="bar" unicode="|" horiz-adv-x="235" 
d="M158 878v-1047h-81v1047h81z" />
    <glyph glyph-name="braceright" unicode="}" horiz-adv-x="320" 
d="M207 275q-41 14 -58.5 40t-17.5 75v184q0 70 -66 70h-42v76h56q58 0 96 -38t38 -108v-173q0 -47 19 -70t74 -23v-65q-55 0 -74 -23t-19 -70v-174q0 -69 -38 -107t-96 -38h-56v76h42q66 0 66 70v184q0 49 17.5 75t58.5 39z" />
    <glyph glyph-name="asciitilde" unicode="~" 
d="M178 436q37 0 86 -23l62 -29q37 -18 58 -18q52 0 52 70l75 -6q0 -70 -35 -108t-90 -38q-37 0 -86 23l-62 29q-37 18 -58 18q-52 0 -52 -70l-75 6q0 70 35 108t90 38z" />
    <glyph glyph-name="uni00A0" unicode="&#xa0;" horiz-adv-x="235" 
 />
    <glyph glyph-name="exclamdown" unicode="&#xa1;" horiz-adv-x="235" 
d="M55 670q0 28 17 45t45 17t45.5 -17t17.5 -45t-17 -45.5t-46 -17.5q-28 0 -45 17.5t-17 45.5zM66 0v201l29 335h45l29 -335v-201h-103z" />
    <glyph glyph-name="cent" unicode="&#xa2;" horiz-adv-x="584" 
d="M282 -169v159q-105 12 -174 90t-69 190t69 190t174 90v170h65v-169q140 -12 205 -142l-79 -46q-48 87 -126 99v-384q90 12 132 113l83 -38q-56 -150 -215 -164v-158h-65zM136 270q0 -74 40.5 -126t105.5 -65v382q-65 -13 -105.5 -65.5t-40.5 -125.5z" />
    <glyph glyph-name="sterling" unicode="&#xa3;" horiz-adv-x="635" 
d="M458 333h-218q36 -70 36 -120q0 -36 -15 -69q5 -1 51 -18l73 -28q49 -18 72 -18q64 0 64 91l91 -7q0 -89 -40.5 -132.5t-105.5 -43.5q-53 0 -113 24l-70 27q-51 19 -68 19q-61 0 -61 -77l-90 6q1 127 104 159q14 28 14 62q0 38 -47 125h-104v65h75q-16 43 -16 91
q0 104 69.5 173.5t177.5 69.5q87 0 139.5 -34.5t90.5 -96.5l-82 -56q-31 46 -63.5 69t-84.5 23q-60 0 -102 -41.5t-42 -107.5q0 -50 16 -90h249v-65z" />
    <glyph glyph-name="currency" unicode="&#xa4;" horiz-adv-x="1028" 
d="M854 61l-61 -61h-598l-61 61v598l62 61h597l61 -62v-597zM259 595v-470h470v470h-470zM482 223l-126 191v-191h-44v274h47l128 -194v194h102q44 0 68 -23t24 -62q0 -38 -25 -61t-71 -23h-53v-105h-50zM840 69v583l-41 42v-583h-542v-42h583zM148 651v-584l41 -41v583h540
v42h-581zM785 706h-583l-42 -41h583v-540h42v581zM203 14h582l43 41h-583v540h-42v-581zM587 453h-55v-81h53q46 0 46 40q0 41 -44 41z" />
    <glyph glyph-name="yen" unicode="&#xa5;" horiz-adv-x="621" 
d="M75 377h138l-205 343h112l191 -318l193 318h109l-210 -343h142v-65h-181l-6 -33v-52h187v-65h-187v-162h-99v162h-184v65h184v52l-6 33h-178v65z" />
    <glyph glyph-name="brokenbar" unicode="&#xa6;" horiz-adv-x="235" 
d="M158 878v-397h-81v397h81zM158 228v-397h-81v397h81z" />
    <glyph glyph-name="section" unicode="&#xa7;" horiz-adv-x="566" 
d="M370 325l-114 54q-41 19 -64 19t-38.5 -16t-15.5 -41q0 -50 63 -79l114 -53q43 -20 64 -20q23 0 39 16t16 42q0 47 -64 78zM422 145q35 -30 52.5 -61t17.5 -77q0 -76 -55 -126t-144 -50q-154 0 -227 141l77 50q58 -103 148 -103q48 0 76 24t28 62q0 35 -21.5 59t-75.5 49
l-146 68q-111 53 -111 142q0 49 31.5 80t77.5 38q-51 51 -51 118q0 72 53.5 122.5t135.5 50.5q131 0 200 -124l-79 -48q-45 84 -120 84q-41 0 -67 -23t-26 -56q0 -30 18 -50t66 -43l151 -72q100 -48 100 -137q0 -95 -109 -118z" />
    <glyph glyph-name="dieresis" unicode="&#xa8;" horiz-adv-x="500" 
d="M115 676q0 23 14.5 37.5t37.5 14.5q24 0 38.5 -14.5t14.5 -37.5q0 -24 -14.5 -38.5t-38.5 -14.5q-23 0 -37.5 14.5t-14.5 38.5zM280 676q0 23 14.5 37.5t37.5 14.5q24 0 38.5 -14.5t14.5 -37.5q0 -24 -14.5 -38.5t-38.5 -14.5q-23 0 -37.5 14.5t-14.5 38.5z" />
    <glyph glyph-name="copyright" unicode="&#xa9;" horiz-adv-x="826" 
d="M415 148q-87 0 -146 59.5t-59 148.5t59 148.5t146 59.5q123 0 178 -113l-69 -40q-45 76 -109 76q-52 0 -87 -37.5t-35 -93.5t35 -93.5t87 -37.5q76 0 112 84l72 -32q-22 -58 -69.5 -93.5t-114.5 -35.5zM413 -12q-161 0 -266.5 105.5t-105.5 266.5q0 160 105.5 266
t266.5 106t266.5 -106t105.5 -266q0 -161 -105.5 -266.5t-266.5 -105.5zM703 360q0 126 -82.5 211.5t-207.5 85.5q-126 0 -208 -85.5t-82 -211.5q0 -127 82 -212.5t208 -85.5q125 0 207.5 86t82.5 212z" />
    <glyph glyph-name="ordfeminine" unicode="&#xaa;" horiz-adv-x="413" 
d="M277 363v14q-18 -12 -46 -20l-65 -18q-55 -15 -55 -56q0 -19 15 -31t40 -12q45 0 78 31.5t33 91.5zM206 597q99 0 133 -67q17 -34 17 -84v-187q0 -18 14 -18q10 0 17 1v-68q-11 -3 -27 -3q-74 0 -83 69q-44 -69 -123 -69q-55 0 -88.5 30t-33.5 79q0 92 121 120l85 20
q23 5 31 13.5t8 25.5q0 31 -19.5 48t-54.5 17q-69 0 -82 -68l-78 7q7 58 51 96t112 38z" />
    <glyph glyph-name="guillemotleft" unicode="&#xab;" horiz-adv-x="486" 
d="M35 315l204 173v-106l-131 -111l131 -111v-106l-204 173v88zM239 315l204 173v-106l-131 -111l131 -111v-106l-204 173v88z" />
    <glyph glyph-name="logicalnot" unicode="&#xac;" 
d="M507 501v-282h-82v200h-368v82h450z" />
    <glyph glyph-name="uni00AD" unicode="&#xad;" horiz-adv-x="235" 
d="M217 313v-84h-200v84h200z" />
    <glyph glyph-name="registered" unicode="&#xae;" horiz-adv-x="826" 
d="M404 316h-48v-161h-79v402h148q63 0 97.5 -33t34.5 -88q0 -68 -77 -104l95 -177h-91zM422 484h-66v-95h62q27 0 41.5 13t14.5 34q0 22 -14 35t-38 13zM413 -12q-161 0 -266.5 105.5t-105.5 266.5q0 160 105.5 266t266.5 106t266.5 -106t105.5 -266q0 -161 -105.5 -266.5
t-266.5 -105.5zM703 360q0 126 -82.5 211.5t-207.5 85.5q-126 0 -208 -85.5t-82 -211.5q0 -127 82 -212.5t208 -85.5q125 0 207.5 86t82.5 212z" />
    <glyph glyph-name="macron" unicode="&#xaf;" horiz-adv-x="500" 
d="M116 648v72h268v-72h-268z" />
    <glyph glyph-name="degree" unicode="&#xb0;" horiz-adv-x="412" 
d="M33 559q0 74 50 123.5t123 49.5t123 -49.5t50 -123.5q0 -71 -50.5 -121.5t-122.5 -50.5q-73 0 -123 49t-50 123zM112 559q0 -42 27 -69t67 -27q39 0 66 28t27 68q0 42 -26.5 69t-66.5 27t-67 -27t-27 -69z" />
    <glyph glyph-name="plusminus" unicode="&#xb1;" 
d="M323 215h184v-82h-450v82h184v138h-184v82h184v164h82v-164h184v-82h-184v-138z" />
    <glyph glyph-name="twosuperior" unicode="&#xb2;" horiz-adv-x="432" 
d="M394 256v-76h-351v26q0 46 12 82q18 52 90 104l76 57q46 35 63.5 58t17.5 56q0 38 -25 63t-61 25q-70 0 -106 -88l-67 33q22 60 67.5 96.5t109.5 36.5q71 0 118 -48t47 -117q0 -55 -23 -90t-82 -78l-92 -65q-53 -37 -55 -75h261z" />
    <glyph glyph-name="threesuperior" unicode="&#xb3;" horiz-adv-x="407" 
d="M200 729q67 0 110 -42.5t43 -108.5q0 -78 -66 -112q38 -17 61.5 -53.5t23.5 -82.5q0 -72 -47.5 -115.5t-120.5 -43.5q-117 0 -177 105l64 45q44 -73 110 -73q39 0 63.5 23t24.5 62q0 62 -50 85q-19 9 -70 9h-32v72h18q57 0 78 10q40 17 40 67q0 33 -21 54.5t-54 21.5
q-57 0 -96 -65l-61 43q62 99 159 99z" />
    <glyph glyph-name="acute" unicode="&#xb4;" horiz-adv-x="500" 
d="M166 584l60 136h111l-100 -136h-71z" />
    <glyph glyph-name="mu" unicode="&#xb5;" horiz-adv-x="571" 
d="M69 -169v710h94v-336q0 -71 22.5 -103t83.5 -32q67 0 103 46.5t36 133.5v291h94v-541h-94v82q-26 -43 -67.5 -68.5t-93.5 -25.5q-49 0 -84 23v-180h-94z" />
    <glyph glyph-name="paragraph" unicode="&#xb6;" horiz-adv-x="594" 
d="M257 -169v516q-97 0 -156.5 51.5t-59.5 131.5q0 97 62 143.5t172 46.5h246v-889h-83v808h-99v-808h-82z" />
    <glyph glyph-name="periodcentered" unicode="&#xb7;" horiz-adv-x="235" 
d="M55 359q0 28 17 45.5t45 17.5q29 0 46 -17t17 -46q0 -28 -17.5 -45t-45.5 -17t-45 17t-17 45z" />
    <glyph glyph-name="cedilla" unicode="&#xb8;" horiz-adv-x="500" 
d="M246 -181q-56 0 -97 22l15 42q37 -16 68 -16q42 0 42 25q0 26 -35 26q-16 0 -38 -10l-22 26l61 86h43l-43 -62q9 3 30 3q37 0 58.5 -20t21.5 -50q0 -33 -26 -52.5t-78 -19.5z" />
    <glyph glyph-name="onesuperior" unicode="&#xb9;" horiz-adv-x="287" 
d="M26 574v60h17q45 0 76 22t41 64h62v-540h-82v394h-114z" />
    <glyph glyph-name="ordmasculine" unicode="&#xba;" horiz-adv-x="493" 
d="M34 383q0 93 60 153.5t150 60.5t150.5 -61t60.5 -153q0 -88 -61 -150t-150 -62q-90 0 -150 60t-60 152zM115 383q0 -59 37 -98.5t93 -39.5q54 0 91.5 40.5t37.5 97.5q0 60 -37 99.5t-92 39.5q-56 0 -93 -39.5t-37 -99.5z" />
    <glyph glyph-name="guillemotright" unicode="&#xbb;" horiz-adv-x="486" 
d="M43 488l204 -173v-88l-204 -173v106l131 111l-131 111v106zM247 488l204 -173v-88l-204 -173v106l131 111l-131 111v106z" />
    <glyph glyph-name="onequarter" unicode="&#xbc;" horiz-adv-x="961" 
d="M544 720h86l-298 -720h-86zM26 574v60h17q45 0 76 22t41 64h62v-540h-82v394h-114zM792 423l-156 -217h156v217zM935 206v-73h-62v-133h-81v133h-239v77l239 330h81v-334h62z" />
    <glyph glyph-name="onehalf" unicode="&#xbd;" horiz-adv-x="1022" 
d="M544 720h86l-298 -720h-86zM26 574v60h17q45 0 76 22t41 64h62v-540h-82v394h-114zM983 76v-76h-351v26q0 46 12 82q18 52 90 104l76 57q46 35 63.5 58t17.5 56q0 38 -25 63t-61 25q-70 0 -106 -88l-67 33q22 60 67.5 96.5t109.5 36.5q71 0 118 -48t47 -117
q0 -55 -23 -90t-82 -78l-92 -65q-53 -37 -55 -75h261z" />
    <glyph glyph-name="threequarters" unicode="&#xbe;" horiz-adv-x="1081" 
d="M664 720h86l-298 -720h-86zM912 423l-156 -217h156v217zM1055 206v-73h-62v-133h-81v133h-239v77l239 330h81v-334h62zM200 729q67 0 110 -42.5t43 -108.5q0 -78 -66 -112q38 -17 61.5 -53.5t23.5 -82.5q0 -72 -47.5 -115.5t-120.5 -43.5q-117 0 -177 105l64 45
q44 -73 110 -73q39 0 63.5 23t24.5 62q0 62 -50 85q-19 9 -70 9h-32v72h18q57 0 78 10q40 17 40 67q0 33 -21 54.5t-54 21.5q-57 0 -96 -65l-61 43q62 99 159 99z" />
    <glyph glyph-name="questiondown" unicode="&#xbf;" horiz-adv-x="471" 
d="M217 536h52q8 -34 8 -57q0 -74 -63 -138l-36 -37q-30 -30 -41.5 -55t-11.5 -59q0 -45 30.5 -78.5t76.5 -33.5q86 0 129 102l75 -39q-25 -70 -79 -111.5t-126 -41.5q-90 0 -146 58t-56 143q0 51 18 89t60 78l33 32q42 40 58 72.5t19 75.5zM302 670q0 -28 -17 -45.5
t-45 -17.5t-45.5 17.5t-17.5 45.5t17.5 45t45.5 17t45 -17t17 -45z" />
    <glyph glyph-name="Agrave" unicode="&#xc0;" horiz-adv-x="694" 
d="M575 0l-68 177h-321l-70 -177h-105l292 720h99l281 -720h-108zM350 582l-130 -315h253zM344 878l50 -115h-71l-100 115h121z" />
    <glyph glyph-name="Aacute" unicode="&#xc1;" horiz-adv-x="694" 
d="M575 0l-68 177h-321l-70 -177h-105l292 720h99l281 -720h-108zM350 582l-130 -315h253zM307 763l50 115h121l-100 -115h-71z" />
    <glyph glyph-name="Acircumflex" unicode="&#xc2;" horiz-adv-x="694" 
d="M575 0l-68 177h-321l-70 -177h-105l292 720h99l281 -720h-108zM350 582l-130 -315h253zM183 762l119 116h99l118 -116h-88l-80 53l-80 -53h-88z" />
    <glyph glyph-name="Atilde" unicode="&#xc3;" horiz-adv-x="694" 
d="M575 0l-68 177h-321l-70 -177h-105l292 720h99l281 -720h-108zM350 582l-130 -315h253zM340 784q-39 19 -56 19q-30 0 -33 -40l-58 7q1 51 26.5 79.5t65.5 28.5q29 0 75 -23q39 -20 56 -20q28 0 33 41l58 -7q-1 -51 -26.5 -80t-65.5 -29q-27 0 -75 24z" />
    <glyph glyph-name="Adieresis" unicode="&#xc4;" horiz-adv-x="694" 
d="M575 0l-68 177h-321l-70 -177h-105l292 720h99l281 -720h-108zM350 582l-130 -315h253zM216 832q0 24 14.5 38.5t37.5 14.5q24 0 38.5 -14.5t14.5 -38.5q0 -23 -14.5 -37.5t-38.5 -14.5q-23 0 -37.5 14.5t-14.5 37.5zM381 832q0 24 14.5 38.5t37.5 14.5q24 0 38.5 -14.5
t14.5 -38.5q0 -23 -14.5 -37.5t-38.5 -14.5q-23 0 -37.5 14.5t-14.5 37.5z" />
    <glyph glyph-name="Aring" unicode="&#xc5;" horiz-adv-x="694" 
d="M236 764q0 48 34 81t81 33t81 -33t34 -81q0 -57 -47 -91l264 -673h-108l-69 177h-320l-71 -177h-104l273 672q-48 31 -48 92zM349 585l-128 -318h250zM297 764q0 -23 15.5 -39t38.5 -16t38.5 16t15.5 39t-16 39t-38 16q-23 0 -38.5 -16t-15.5 -39z" />
    <glyph glyph-name="AE" unicode="&#xc6;" horiz-adv-x="979" 
d="M514 0v177h-274l-112 -177h-117l466 720h446v-91h-310v-208h301v-91h-301v-239h319v-91h-418zM514 610l-217 -343h217v343z" />
    <glyph glyph-name="Ccedilla" unicode="&#xc7;" horiz-adv-x="762" 
d="M388 -181q-56 0 -97 22l15 42q37 -16 68 -16q42 0 42 25q0 26 -35 26q-16 0 -38 -10l-22 26l40 57q-140 15 -230 118t-90 251q0 160 105.5 266t259.5 106q217 0 312 -188l-87 -51q-79 144 -225 144q-111 0 -185.5 -79t-74.5 -198q0 -118 75 -197.5t185 -79.5
q164 0 232 164l92 -41q-37 -101 -118 -159.5t-206 -58.5h-3l-21 -30q9 3 30 3q37 0 58.5 -20t21.5 -50q0 -33 -26 -52.5t-78 -19.5z" />
    <glyph glyph-name="Egrave" unicode="&#xc8;" horiz-adv-x="538" 
d="M73 0v720h409v-91h-310v-208h301v-91h-301v-239h319v-91h-418zM279 878l50 -115h-71l-100 115h121z" />
    <glyph glyph-name="Eacute" unicode="&#xc9;" horiz-adv-x="538" 
d="M73 0v720h409v-91h-310v-208h301v-91h-301v-239h319v-91h-418zM235 763l50 115h121l-100 -115h-71z" />
    <glyph glyph-name="Ecircumflex" unicode="&#xca;" horiz-adv-x="538" 
d="M73 0v720h409v-91h-310v-208h301v-91h-301v-239h319v-91h-418zM116 762l119 116h99l118 -116h-88l-80 53l-80 -53h-88z" />
    <glyph glyph-name="Edieresis" unicode="&#xcb;" horiz-adv-x="538" 
d="M73 0v720h409v-91h-310v-208h301v-91h-301v-239h319v-91h-418zM149 832q0 24 14.5 38.5t37.5 14.5q24 0 38.5 -14.5t14.5 -38.5q0 -23 -14.5 -37.5t-38.5 -14.5q-23 0 -37.5 14.5t-14.5 37.5zM314 832q0 24 14.5 38.5t37.5 14.5q24 0 38.5 -14.5t14.5 -38.5
q0 -23 -14.5 -37.5t-38.5 -14.5q-23 0 -37.5 14.5t-14.5 37.5z" />
    <glyph glyph-name="Igrave" unicode="&#xcc;" horiz-adv-x="245" 
d="M172 720v-720h-99v720h99zM116 878l50 -115h-71l-100 115h121z" />
    <glyph glyph-name="Iacute" unicode="&#xcd;" horiz-adv-x="245" 
d="M172 720v-720h-99v720h99zM73 763l50 115h121l-100 -115h-71z" />
    <glyph glyph-name="Icircumflex" unicode="&#xce;" horiz-adv-x="245" 
d="M172 720v-720h-99v720h99zM-46 762l119 116h99l118 -116h-88l-80 53l-80 -53h-88z" />
    <glyph glyph-name="Idieresis" unicode="&#xcf;" horiz-adv-x="245" 
d="M172 720v-720h-99v720h99zM-12 832q0 24 14.5 38.5t37.5 14.5q24 0 38.5 -14.5t14.5 -38.5q0 -23 -14.5 -37.5t-38.5 -14.5q-23 0 -37.5 14.5t-14.5 37.5zM153 832q0 24 14.5 38.5t37.5 14.5q24 0 38.5 -14.5t14.5 -38.5q0 -23 -14.5 -37.5t-38.5 -14.5q-23 0 -37.5 14.5
t-14.5 37.5z" />
    <glyph glyph-name="Eth" unicode="&#xd0;" horiz-adv-x="719" 
d="M14 328v65h93v327h209q163 0 262.5 -98t99.5 -262q0 -157 -101.5 -258.5t-266.5 -101.5h-203v328h-93zM206 629v-236h219v-65h-219v-237h98q125 0 198 74.5t73 194.5q0 123 -71.5 196t-191.5 73h-106z" />
    <glyph glyph-name="Ntilde" unicode="&#xd1;" horiz-adv-x="717" 
d="M540 0l-374 552v-552h-93v720h100l378 -557v557h93v-720h-104zM358 784q-39 19 -56 19q-30 0 -33 -40l-58 7q1 51 26.5 79.5t65.5 28.5q29 0 75 -23q39 -20 56 -20q28 0 33 41l58 -7q-1 -51 -26.5 -80t-65.5 -29q-27 0 -75 24z" />
    <glyph glyph-name="Ograve" unicode="&#xd2;" horiz-adv-x="812" 
d="M145 360q0 -118 75 -197.5t186 -79.5q109 0 185 81.5t76 195.5q0 118 -75 197.5t-186 79.5t-186 -79t-75 -198zM41 360q0 161 105 266.5t260 105.5t260 -105.5t105 -266.5q0 -155 -106 -263.5t-259 -108.5q-155 0 -260 105.5t-105 266.5zM399 878l50 -115h-71l-100 115
h121z" />
    <glyph glyph-name="Oacute" unicode="&#xd3;" horiz-adv-x="812" 
d="M145 360q0 -118 75 -197.5t186 -79.5q109 0 185 81.5t76 195.5q0 118 -75 197.5t-186 79.5t-186 -79t-75 -198zM41 360q0 161 105 266.5t260 105.5t260 -105.5t105 -266.5q0 -155 -106 -263.5t-259 -108.5q-155 0 -260 105.5t-105 266.5zM362 763l50 115h121l-100 -115
h-71z" />
    <glyph glyph-name="Ocircumflex" unicode="&#xd4;" horiz-adv-x="812" 
d="M145 360q0 -118 75 -197.5t186 -79.5q109 0 185 81.5t76 195.5q0 118 -75 197.5t-186 79.5t-186 -79t-75 -198zM41 360q0 161 105 266.5t260 105.5t260 -105.5t105 -266.5q0 -155 -106 -263.5t-259 -108.5q-155 0 -260 105.5t-105 266.5zM240 762l119 116h99l118 -116
h-88l-80 53l-80 -53h-88z" />
    <glyph glyph-name="Otilde" unicode="&#xd5;" horiz-adv-x="812" 
d="M145 360q0 -118 75 -197.5t186 -79.5q109 0 185 81.5t76 195.5q0 118 -75 197.5t-186 79.5t-186 -79t-75 -198zM41 360q0 161 105 266.5t260 105.5t260 -105.5t105 -266.5q0 -155 -106 -263.5t-259 -108.5q-155 0 -260 105.5t-105 266.5zM396 784q-39 19 -56 19
q-30 0 -33 -40l-58 7q1 51 26.5 79.5t65.5 28.5q29 0 75 -23q39 -20 56 -20q28 0 33 41l58 -7q-1 -51 -26.5 -80t-65.5 -29q-27 0 -75 24z" />
    <glyph glyph-name="Odieresis" unicode="&#xd6;" horiz-adv-x="812" 
d="M145 360q0 -118 75 -197.5t186 -79.5q109 0 185 81.5t76 195.5q0 118 -75 197.5t-186 79.5t-186 -79t-75 -198zM41 360q0 161 105 266.5t260 105.5t260 -105.5t105 -266.5q0 -155 -106 -263.5t-259 -108.5q-155 0 -260 105.5t-105 266.5zM271 832q0 24 14.5 38.5
t37.5 14.5q24 0 38.5 -14.5t14.5 -38.5q0 -23 -14.5 -37.5t-38.5 -14.5q-23 0 -37.5 14.5t-14.5 37.5zM436 832q0 24 14.5 38.5t37.5 14.5q24 0 38.5 -14.5t14.5 -38.5q0 -23 -14.5 -37.5t-38.5 -14.5q-23 0 -37.5 14.5t-14.5 37.5z" />
    <glyph glyph-name="multiply" unicode="&#xd7;" 
d="M282 418l130 130l58 -58l-130 -130l130 -130l-58 -58l-130 130l-130 -130l-58 58l130 130l-130 130l58 58z" />
    <glyph glyph-name="Oslash" unicode="&#xd8;" horiz-adv-x="806" 
d="M10 13l108 108q-80 99 -80 239q0 161 104.5 266.5t259.5 105.5q139 0 239 -87l109 108l46 -46l-109 -109q80 -101 80 -238q0 -155 -105.5 -263.5t-259.5 -108.5q-137 0 -239 86l-107 -107zM142 360q0 -93 49 -166l380 380q-73 63 -169 63q-111 0 -185.5 -79t-74.5 -198z
M663 360q0 90 -49 165l-380 -379q71 -63 168 -63q110 0 185.5 81.5t75.5 195.5z" />
    <glyph glyph-name="Ugrave" unicode="&#xd9;" horiz-adv-x="678" 
d="M518 720h93v-462q0 -127 -71 -198.5t-201 -71.5q-124 0 -198 73t-74 201v458h99v-453q0 -90 47.5 -137t129.5 -47q84 0 129.5 45.5t45.5 131.5v460zM332 878l50 -115h-71l-100 115h121z" />
    <glyph glyph-name="Uacute" unicode="&#xda;" horiz-adv-x="678" 
d="M518 720h93v-462q0 -127 -71 -198.5t-201 -71.5q-124 0 -198 73t-74 201v458h99v-453q0 -90 47.5 -137t129.5 -47q84 0 129.5 45.5t45.5 131.5v460zM295 763l50 115h121l-100 -115h-71z" />
    <glyph glyph-name="Ucircumflex" unicode="&#xdb;" horiz-adv-x="678" 
d="M518 720h93v-462q0 -127 -71 -198.5t-201 -71.5q-124 0 -198 73t-74 201v458h99v-453q0 -90 47.5 -137t129.5 -47q84 0 129.5 45.5t45.5 131.5v460zM171 762l119 116h99l118 -116h-88l-80 53l-80 -53h-88z" />
    <glyph glyph-name="Udieresis" unicode="&#xdc;" horiz-adv-x="678" 
d="M518 720h93v-462q0 -127 -71 -198.5t-201 -71.5q-124 0 -198 73t-74 201v458h99v-453q0 -90 47.5 -137t129.5 -47q84 0 129.5 45.5t45.5 131.5v460zM204 832q0 24 14.5 38.5t37.5 14.5q24 0 38.5 -14.5t14.5 -38.5q0 -23 -14.5 -37.5t-38.5 -14.5q-23 0 -37.5 14.5
t-14.5 37.5zM369 832q0 24 14.5 38.5t37.5 14.5q24 0 38.5 -14.5t14.5 -38.5q0 -23 -14.5 -37.5t-38.5 -14.5q-23 0 -37.5 14.5t-14.5 37.5z" />
    <glyph glyph-name="Yacute" unicode="&#xdd;" horiz-adv-x="621" 
d="M311 402l192 318h110l-256 -418v-302h-99v302l-250 418h112zM268 763l50 115h121l-100 -115h-71z" />
    <glyph glyph-name="Thorn" unicode="&#xde;" horiz-adv-x="618" 
d="M334 163h-162v-163h-99v720h99v-131h169q111 0 173.5 -59t62.5 -154q0 -97 -63 -155t-180 -58zM338 498h-166v-244h162q66 0 102.5 33t36.5 90q0 56 -35 88.5t-100 32.5z" />
    <glyph glyph-name="germandbls" unicode="&#xdf;" horiz-adv-x="553" 
d="M69 0v509q0 100 56 161.5t149 61.5q89 0 147 -55.5t58 -135.5q0 -106 -92 -150q60 -19 98 -68.5t38 -125.5q0 -95 -63 -152t-165 -57q-39 0 -67 7l4 86q25 -5 57 -5q63 0 100.5 34t37.5 93q0 92 -81 126q-30 13 -100 13h-15v84q67 0 93 11q59 26 59 99q0 46 -31.5 77
t-78.5 31q-51 0 -80.5 -35.5t-29.5 -97.5v-511h-94z" />
    <glyph glyph-name="agrave" unicode="&#xe0;" horiz-adv-x="530" 
d="M369 239v28q-17 -12 -63 -24l-89 -24q-87 -23 -87 -85q0 -30 22.5 -48t61.5 -18q62 0 108.5 44.5t46.5 126.5zM267 553q126 0 174 -87q22 -40 22 -115v-247q0 -33 27 -33q6 0 20 2v-80q-18 -5 -37 -5q-92 0 -102 88l-2 16q-60 -104 -169 -104q-74 0 -118.5 39t-44.5 103
q0 62 40 100t124 57l110 25q32 7 45 20t13 41q0 45 -28 69.5t-77 24.5q-102 0 -118 -92l-92 9q9 72 66.5 120.5t146.5 48.5zM242 720l60 -136h-71l-100 136h111z" />
    <glyph glyph-name="aacute" unicode="&#xe1;" horiz-adv-x="530" 
d="M369 239v28q-17 -12 -63 -24l-89 -24q-87 -23 -87 -85q0 -30 22.5 -48t61.5 -18q62 0 108.5 44.5t46.5 126.5zM267 553q126 0 174 -87q22 -40 22 -115v-247q0 -33 27 -33q6 0 20 2v-80q-18 -5 -37 -5q-92 0 -102 88l-2 16q-60 -104 -169 -104q-74 0 -118.5 39t-44.5 103
q0 62 40 100t124 57l110 25q32 7 45 20t13 41q0 45 -28 69.5t-77 24.5q-102 0 -118 -92l-92 9q9 72 66.5 120.5t146.5 48.5zM219 584l60 136h111l-100 -136h-71z" />
    <glyph glyph-name="acircumflex" unicode="&#xe2;" horiz-adv-x="530" 
d="M369 239v28q-17 -12 -63 -24l-89 -24q-87 -23 -87 -85q0 -30 22.5 -48t61.5 -18q62 0 108.5 44.5t46.5 126.5zM267 553q126 0 174 -87q22 -40 22 -115v-247q0 -33 27 -33q6 0 20 2v-80q-18 -5 -37 -5q-92 0 -102 88l-2 16q-60 -104 -169 -104q-74 0 -118.5 39t-44.5 103
q0 62 40 100t124 57l110 25q32 7 45 20t13 41q0 45 -28 69.5t-77 24.5q-102 0 -118 -92l-92 9q9 72 66.5 120.5t146.5 48.5zM105 584l109 136h99l108 -136h-82l-76 70l-77 -70h-81z" />
    <glyph glyph-name="atilde" unicode="&#xe3;" horiz-adv-x="530" 
d="M369 239v28q-17 -12 -63 -24l-89 -24q-87 -23 -87 -85q0 -30 22.5 -48t61.5 -18q62 0 108.5 44.5t46.5 126.5zM267 553q126 0 174 -87q22 -40 22 -115v-247q0 -33 27 -33q6 0 20 2v-80q-18 -5 -37 -5q-92 0 -102 88l-2 16q-60 -104 -169 -104q-74 0 -118.5 39t-44.5 103
q0 62 40 100t124 57l110 25q32 7 45 20t13 41q0 45 -28 69.5t-77 24.5q-102 0 -118 -92l-92 9q9 72 66.5 120.5t146.5 48.5zM253 624q-39 19 -56 19q-30 0 -33 -40l-58 7q1 51 26.5 79.5t65.5 28.5q29 0 75 -23q39 -20 56 -20q28 0 33 41l58 -7q-1 -51 -26.5 -80t-65.5 -29
q-27 0 -75 24z" />
    <glyph glyph-name="adieresis" unicode="&#xe4;" horiz-adv-x="530" 
d="M369 239v28q-17 -12 -63 -24l-89 -24q-87 -23 -87 -85q0 -30 22.5 -48t61.5 -18q62 0 108.5 44.5t46.5 126.5zM267 553q126 0 174 -87q22 -40 22 -115v-247q0 -33 27 -33q6 0 20 2v-80q-18 -5 -37 -5q-92 0 -102 88l-2 16q-60 -104 -169 -104q-74 0 -118.5 39t-44.5 103
q0 62 40 100t124 57l110 25q32 7 45 20t13 41q0 45 -28 69.5t-77 24.5q-102 0 -118 -92l-92 9q9 72 66.5 120.5t146.5 48.5zM128 676q0 23 14.5 37.5t37.5 14.5q24 0 38.5 -14.5t14.5 -37.5q0 -24 -14.5 -38.5t-38.5 -14.5q-23 0 -37.5 14.5t-14.5 38.5zM293 676
q0 23 14.5 37.5t37.5 14.5q24 0 38.5 -14.5t14.5 -37.5q0 -24 -14.5 -38.5t-38.5 -14.5q-23 0 -37.5 14.5t-14.5 38.5z" />
    <glyph glyph-name="aring" unicode="&#xe5;" horiz-adv-x="530" 
d="M369 239v28q-17 -12 -63 -24l-89 -24q-87 -23 -87 -85q0 -30 22.5 -48t61.5 -18q62 0 108.5 44.5t46.5 126.5zM267 553q126 0 174 -87q22 -40 22 -115v-247q0 -33 27 -33q6 0 20 2v-80q-18 -5 -37 -5q-92 0 -102 88l-2 16q-60 -104 -169 -104q-74 0 -118.5 39t-44.5 103
q0 62 40 100t124 57l110 25q32 7 45 20t13 41q0 45 -28 69.5t-77 24.5q-102 0 -118 -92l-92 9q9 72 66.5 120.5t146.5 48.5zM148 693q0 48 34 81t81 33t81 -33t34 -81t-34 -81t-81 -33t-81 33t-34 81zM209 693q0 -23 15.5 -39t38.5 -16t38.5 16t15.5 39t-16 39t-38 16
q-23 0 -38.5 -16t-15.5 -39z" />
    <glyph glyph-name="ae" unicode="&#xe6;" horiz-adv-x="927" 
d="M200 -12q-74 0 -118.5 39t-44.5 103q0 62 40 100t124 57l110 25q32 7 45 20t13 41q0 45 -28 69.5t-77 24.5q-102 0 -118 -92l-92 9q9 72 66.5 120.5t146.5 48.5q126 0 173 -87q79 87 193 87q115 0 185 -77.5t70 -189.5q0 -22 -3 -42h-421q5 -76 53 -122.5t124 -46.5
q103 0 139 92l92 -15q-22 -75 -83.5 -119.5t-147.5 -44.5q-79 0 -140.5 34t-96.5 96q-61 -130 -204 -130zM466 319h326q-9 68 -51 107.5t-108 39.5q-65 0 -110 -41.5t-57 -105.5zM369 239v28q-17 -12 -63 -24l-89 -24q-87 -23 -87 -85q0 -30 22.5 -48t61.5 -18
q62 0 108.5 44.5t46.5 126.5z" />
    <glyph glyph-name="ccedilla" unicode="&#xe7;" horiz-adv-x="584" 
d="M200 -159l15 42q37 -16 68 -16q42 0 42 25q0 26 -35 26q-16 0 -38 -10l-22 26l40 58q-101 15 -166 92t-65 186q0 122 80.5 202.5t197.5 80.5q166 0 234 -136l-78 -52q-52 98 -155 98q-78 0 -130 -54.5t-52 -138.5t52 -138t130 -54q113 0 161 113l83 -38
q-62 -165 -251 -165l-20 -30q9 3 30 3q37 0 58.5 -20t21.5 -50q0 -33 -26 -52.5t-78 -19.5q-56 0 -97 22z" />
    <glyph glyph-name="egrave" unicode="&#xe8;" horiz-adv-x="600" 
d="M139 319h326q-9 68 -51 107.5t-108 39.5q-65 0 -110 -41.5t-57 -105.5zM558 244h-421q5 -76 53 -122.5t124 -46.5q103 0 139 92l92 -15q-22 -75 -83.5 -119.5t-147.5 -44.5q-121 0 -197.5 77t-76.5 205q0 124 78 203.5t188 79.5q115 0 185 -77.5t70 -189.5q0 -22 -3 -42z
M299 720l60 -136h-71l-100 136h111z" />
    <glyph glyph-name="eacute" unicode="&#xe9;" horiz-adv-x="600" 
d="M139 319h326q-9 68 -51 107.5t-108 39.5q-65 0 -110 -41.5t-57 -105.5zM558 244h-421q5 -76 53 -122.5t124 -46.5q103 0 139 92l92 -15q-22 -75 -83.5 -119.5t-147.5 -44.5q-121 0 -197.5 77t-76.5 205q0 124 78 203.5t188 79.5q115 0 185 -77.5t70 -189.5q0 -22 -3 -42z
M264 584l60 136h111l-100 -136h-71z" />
    <glyph glyph-name="ecircumflex" unicode="&#xea;" horiz-adv-x="600" 
d="M139 319h326q-9 68 -51 107.5t-108 39.5q-65 0 -110 -41.5t-57 -105.5zM558 244h-421q5 -76 53 -122.5t124 -46.5q103 0 139 92l92 -15q-22 -75 -83.5 -119.5t-147.5 -44.5q-121 0 -197.5 77t-76.5 205q0 124 78 203.5t188 79.5q115 0 185 -77.5t70 -189.5q0 -22 -3 -42z
M152 584l109 136h99l108 -136h-82l-76 70l-77 -70h-81z" />
    <glyph glyph-name="edieresis" unicode="&#xeb;" horiz-adv-x="600" 
d="M139 319h326q-9 68 -51 107.5t-108 39.5q-65 0 -110 -41.5t-57 -105.5zM558 244h-421q5 -76 53 -122.5t124 -46.5q103 0 139 92l92 -15q-22 -75 -83.5 -119.5t-147.5 -44.5q-121 0 -197.5 77t-76.5 205q0 124 78 203.5t188 79.5q115 0 185 -77.5t70 -189.5q0 -22 -3 -42z
M175 676q0 23 14.5 37.5t37.5 14.5q24 0 38.5 -14.5t14.5 -37.5q0 -24 -14.5 -38.5t-38.5 -14.5q-23 0 -37.5 14.5t-14.5 38.5zM340 676q0 23 14.5 37.5t37.5 14.5q24 0 38.5 -14.5t14.5 -37.5q0 -24 -14.5 -38.5t-38.5 -14.5q-23 0 -37.5 14.5t-14.5 38.5z" />
    <glyph glyph-name="igrave" unicode="&#xec;" horiz-adv-x="232" 
d="M102 720l60 -136h-71l-100 136h111zM163 541v-541h-94v541h94z" />
    <glyph glyph-name="iacute" unicode="&#xed;" horiz-adv-x="232" 
d="M71 584l60 136h111l-100 -136h-71zM163 541v-541h-94v541h94z" />
    <glyph glyph-name="icircumflex" unicode="&#xee;" horiz-adv-x="232" 
d="M163 541v-541h-94v541h94zM-42 584l109 136h99l108 -136h-82l-76 70l-77 -70h-81z" />
    <glyph glyph-name="idieresis" unicode="&#xef;" horiz-adv-x="232" 
d="M-19 676q0 23 14.5 37.5t37.5 14.5q24 0 38.5 -14.5t14.5 -37.5q0 -24 -14.5 -38.5t-38.5 -14.5q-23 0 -37.5 14.5t-14.5 38.5zM146 676q0 23 14.5 37.5t37.5 14.5q24 0 38.5 -14.5t14.5 -37.5q0 -24 -14.5 -38.5t-38.5 -14.5q-23 0 -37.5 14.5t-14.5 38.5zM163 541v-541
h-94v541h94z" />
    <glyph glyph-name="eth" unicode="&#xf0;" horiz-adv-x="617" 
d="M243 720h107l36 -59l143 24l11 -64l-118 -21l94 -151q64 -102 64 -195q0 -110 -78 -188t-191 -78q-115 0 -192.5 75t-77.5 188q0 114 78 187t192 73q23 0 65 -9l-51 82l-163 -28l-10 65l136 23zM138 251q0 -76 49.5 -125.5t124.5 -49.5q73 0 122 51t49 124
q0 76 -48.5 125.5t-122.5 49.5q-75 0 -124.5 -49.5t-49.5 -125.5z" />
    <glyph glyph-name="ntilde" unicode="&#xf1;" horiz-adv-x="565" 
d="M326 553q66 0 110 -35t58 -92q8 -34 8 -108v-318h-94v300q0 86 -24 125.5t-88 39.5q-69 0 -101 -43.5t-32 -130.5v-291h-94v541h94v-83q57 95 163 95zM282 624q-39 19 -56 19q-30 0 -33 -40l-58 7q1 51 26.5 79.5t65.5 28.5q29 0 75 -23q39 -20 56 -20q28 0 33 41l58 -7
q-1 -51 -26.5 -80t-65.5 -29q-27 0 -75 24z" />
    <glyph glyph-name="ograve" unicode="&#xf2;" horiz-adv-x="638" 
d="M39 270q0 122 80.5 202.5t198.5 80.5q119 0 199.5 -80.5t80.5 -202.5q0 -117 -81 -199.5t-199 -82.5t-198.5 80.5t-80.5 201.5zM136 270q0 -84 52.5 -139t130.5 -55q77 0 129.5 57t52.5 137q0 84 -52 139.5t-130 55.5t-130.5 -55.5t-52.5 -139.5zM303 720l60 -136h-71
l-100 136h111z" />
    <glyph glyph-name="oacute" unicode="&#xf3;" horiz-adv-x="638" 
d="M39 270q0 122 80.5 202.5t198.5 80.5q119 0 199.5 -80.5t80.5 -202.5q0 -117 -81 -199.5t-199 -82.5t-198.5 80.5t-80.5 201.5zM136 270q0 -84 52.5 -139t130.5 -55q77 0 129.5 57t52.5 137q0 84 -52 139.5t-130 55.5t-130.5 -55.5t-52.5 -139.5zM273 584l60 136h111
l-100 -136h-71z" />
    <glyph glyph-name="ocircumflex" unicode="&#xf4;" horiz-adv-x="638" 
d="M39 270q0 122 80.5 202.5t198.5 80.5q119 0 199.5 -80.5t80.5 -202.5q0 -117 -81 -199.5t-199 -82.5t-198.5 80.5t-80.5 201.5zM136 270q0 -84 52.5 -139t130.5 -55q77 0 129.5 57t52.5 137q0 84 -52 139.5t-130 55.5t-130.5 -55.5t-52.5 -139.5zM161 584l109 136h99
l108 -136h-82l-76 70l-77 -70h-81z" />
    <glyph glyph-name="otilde" unicode="&#xf5;" horiz-adv-x="638" 
d="M39 270q0 122 80.5 202.5t198.5 80.5q119 0 199.5 -80.5t80.5 -202.5q0 -117 -81 -199.5t-199 -82.5t-198.5 80.5t-80.5 201.5zM136 270q0 -84 52.5 -139t130.5 -55q77 0 129.5 57t52.5 137q0 84 -52 139.5t-130 55.5t-130.5 -55.5t-52.5 -139.5zM309 624q-39 19 -56 19
q-30 0 -33 -40l-58 7q1 51 26.5 79.5t65.5 28.5q29 0 75 -23q39 -20 56 -20q28 0 33 41l58 -7q-1 -51 -26.5 -80t-65.5 -29q-27 0 -75 24z" />
    <glyph glyph-name="odieresis" unicode="&#xf6;" horiz-adv-x="638" 
d="M39 270q0 122 80.5 202.5t198.5 80.5q119 0 199.5 -80.5t80.5 -202.5q0 -117 -81 -199.5t-199 -82.5t-198.5 80.5t-80.5 201.5zM136 270q0 -84 52.5 -139t130.5 -55q77 0 129.5 57t52.5 137q0 84 -52 139.5t-130 55.5t-130.5 -55.5t-52.5 -139.5zM184 676q0 23 14.5 37.5
t37.5 14.5q24 0 38.5 -14.5t14.5 -37.5q0 -24 -14.5 -38.5t-38.5 -14.5q-23 0 -37.5 14.5t-14.5 38.5zM349 676q0 23 14.5 37.5t37.5 14.5q24 0 38.5 -14.5t14.5 -37.5q0 -24 -14.5 -38.5t-38.5 -14.5q-23 0 -37.5 14.5t-14.5 38.5z" />
    <glyph glyph-name="divide" unicode="&#xf7;" 
d="M57 401h450v-82h-450v82zM231 535q0 22 14.5 36t36.5 14t36 -14t14 -36t-14 -36.5t-36 -14.5t-36.5 14t-14.5 37zM231 184q0 22 14.5 36t36.5 14t36 -14t14 -36t-14 -36.5t-36 -14.5t-36.5 14.5t-14.5 36.5z" />
    <glyph glyph-name="oslash" unicode="&#xf8;" horiz-adv-x="664" 
d="M25 10l84 85q-57 74 -57 175q0 122 80.5 202.5t198.5 80.5q102 0 177 -61l85 86l46 -46l-86 -86q58 -76 58 -176q0 -117 -81 -199.5t-199 -82.5q-100 0 -176 60l-84 -84zM149 270q0 -59 29 -107l264 264q-48 38 -110 38q-78 0 -130.5 -55.5t-52.5 -139.5zM514 270
q0 60 -29 108l-265 -265q48 -37 112 -37q77 0 129.5 57t52.5 137z" />
    <glyph glyph-name="ugrave" unicode="&#xf9;" horiz-adv-x="565" 
d="M241 -12q-67 0 -112 36t-58 94q-8 32 -8 117v306h94v-306q0 -85 23 -122.5t88 -37.5q134 0 134 175v291h94v-541h-94v82q-26 -43 -67.5 -68.5t-93.5 -25.5zM268 720l60 -136h-71l-100 136h111z" />
    <glyph glyph-name="uacute" unicode="&#xfa;" horiz-adv-x="565" 
d="M241 -12q-67 0 -112 36t-58 94q-8 32 -8 117v306h94v-306q0 -85 23 -122.5t88 -37.5q134 0 134 175v291h94v-541h-94v82q-26 -43 -67.5 -68.5t-93.5 -25.5zM237 584l60 136h111l-100 -136h-71z" />
    <glyph glyph-name="ucircumflex" unicode="&#xfb;" horiz-adv-x="565" 
d="M241 -12q-67 0 -112 36t-58 94q-8 32 -8 117v306h94v-306q0 -85 23 -122.5t88 -37.5q134 0 134 175v291h94v-541h-94v82q-26 -43 -67.5 -68.5t-93.5 -25.5zM124 584l109 136h99l108 -136h-82l-76 70l-77 -70h-81z" />
    <glyph glyph-name="udieresis" unicode="&#xfc;" horiz-adv-x="565" 
d="M241 -12q-67 0 -112 36t-58 94q-8 32 -8 117v306h94v-306q0 -85 23 -122.5t88 -37.5q134 0 134 175v291h94v-541h-94v82q-26 -43 -67.5 -68.5t-93.5 -25.5zM147 676q0 23 14.5 37.5t37.5 14.5q24 0 38.5 -14.5t14.5 -37.5q0 -24 -14.5 -38.5t-38.5 -14.5
q-23 0 -37.5 14.5t-14.5 38.5zM312 676q0 23 14.5 37.5t37.5 14.5q24 0 38.5 -14.5t14.5 -37.5q0 -24 -14.5 -38.5t-38.5 -14.5q-23 0 -37.5 14.5t-14.5 38.5z" />
    <glyph glyph-name="yacute" unicode="&#xfd;" horiz-adv-x="550" 
d="M440 541h103l-302 -710h-105l90 198l-219 512h108l164 -396zM233 584l60 136h111l-100 -136h-71z" />
    <glyph glyph-name="thorn" unicode="&#xfe;" horiz-adv-x="643" 
d="M505 270q0 84 -48 140t-124 56q-77 0 -125 -52t-48 -144q0 -88 49 -142t125 -54q77 0 124 54.5t47 141.5zM603 270q0 -124 -73 -203t-181 -79q-120 0 -186 98v-255h-94v889h94v-273q69 106 188 106q106 0 179 -79.5t73 -203.5z" />
    <glyph glyph-name="ydieresis" unicode="&#xff;" horiz-adv-x="550" 
d="M440 541h103l-302 -710h-105l90 198l-219 512h108l164 -396zM143 676q0 23 14.5 37.5t37.5 14.5q24 0 38.5 -14.5t14.5 -37.5q0 -24 -14.5 -38.5t-38.5 -14.5q-23 0 -37.5 14.5t-14.5 38.5zM308 676q0 23 14.5 37.5t37.5 14.5q24 0 38.5 -14.5t14.5 -37.5
q0 -24 -14.5 -38.5t-38.5 -14.5q-23 0 -37.5 14.5t-14.5 38.5z" />
    <glyph glyph-name="Amacron" unicode="&#x100;" horiz-adv-x="694" 
d="M575 0l-68 177h-321l-70 -177h-105l292 720h99l281 -720h-108zM350 582l-130 -315h253zM216 801v72h268v-72h-268z" />
    <glyph glyph-name="amacron" unicode="&#x101;" horiz-adv-x="530" 
d="M369 239v28q-17 -12 -63 -24l-89 -24q-87 -23 -87 -85q0 -30 22.5 -48t61.5 -18q62 0 108.5 44.5t46.5 126.5zM267 553q126 0 174 -87q22 -40 22 -115v-247q0 -33 27 -33q6 0 20 2v-80q-18 -5 -37 -5q-92 0 -102 88l-2 16q-60 -104 -169 -104q-74 0 -118.5 39t-44.5 103
q0 62 40 100t124 57l110 25q32 7 45 20t13 41q0 45 -28 69.5t-77 24.5q-102 0 -118 -92l-92 9q9 72 66.5 120.5t146.5 48.5zM129 648v72h268v-72h-268z" />
    <glyph glyph-name="Abreve" unicode="&#x102;" horiz-adv-x="694" 
d="M575 0l-68 177h-321l-70 -177h-105l292 720h99l281 -720h-108zM350 582l-130 -315h253zM431 878h55q-2 -54 -39.5 -88t-96.5 -34t-95.5 34t-40.5 88h55q20 -50 81 -50t81 50z" />
    <glyph glyph-name="abreve" unicode="&#x103;" horiz-adv-x="530" 
d="M369 239v28q-17 -12 -63 -24l-89 -24q-87 -23 -87 -85q0 -30 22.5 -48t61.5 -18q62 0 108.5 44.5t46.5 126.5zM267 553q126 0 174 -87q22 -40 22 -115v-247q0 -33 27 -33q6 0 20 2v-80q-18 -5 -37 -5q-92 0 -102 88l-2 16q-60 -104 -169 -104q-74 0 -118.5 39t-44.5 103
q0 62 40 100t124 57l110 25q32 7 45 20t13 41q0 45 -28 69.5t-77 24.5q-102 0 -118 -92l-92 9q9 72 66.5 120.5t146.5 48.5zM342 720h57q0 -60 -38 -98t-98 -38t-97 38t-39 98h56q16 -64 80 -64q65 0 79 64z" />
    <glyph glyph-name="Aogonek" unicode="&#x104;" horiz-adv-x="694" 
d="M634 0h-59l-69 177h-320l-71 -177h-104l292 720h98l282 -720q-70 -41 -70 -86q0 -38 42 -38q22 0 47 18l19 -33q-30 -42 -83 -42q-40 0 -65 21t-25 54q0 63 86 106zM349 585l-128 -318h250z" />
    <glyph glyph-name="aogonek" unicode="&#x105;" horiz-adv-x="530" 
d="M267 553q62 0 107.5 -23t66.5 -64q22 -40 22 -115v-247q0 -33 27 -33q6 0 20 2v-80q-15 -5 -34 -5q-50 -35 -50 -74q0 -38 42 -38q22 0 47 18l19 -33q-30 -42 -83 -42q-40 0 -65 21t-25 54q0 59 73 100q-56 15 -63 82l-2 16q-60 -104 -169 -104q-74 0 -118.5 39
t-44.5 103q0 62 40 100t124 57l110 25q32 7 45 20t13 41q0 45 -28 69.5t-77 24.5q-102 0 -118 -92l-92 9q10 72 66 120.5t147 48.5zM369 239v28q-17 -12 -63 -24l-89 -24q-87 -23 -87 -85q0 -30 22.5 -48t61.5 -18q62 0 108.5 44.5t46.5 126.5z" />
    <glyph glyph-name="Cacute" unicode="&#x106;" horiz-adv-x="762" 
d="M406 637q-111 0 -185.5 -79t-74.5 -198q0 -118 75 -197.5t185 -79.5q164 0 232 164l92 -41q-37 -101 -118 -159.5t-206 -58.5q-156 0 -260.5 105.5t-104.5 266.5q0 160 105.5 266t259.5 106q217 0 312 -188l-87 -51q-79 144 -225 144zM370 763l50 115h121l-100 -115h-71z
" />
    <glyph glyph-name="cacute" unicode="&#x107;" horiz-adv-x="584" 
d="M318 465q-78 0 -130 -55.5t-52 -139.5t52 -139t130 -55q112 0 161 115l83 -38q-28 -76 -89.5 -120.5t-155.5 -44.5q-118 0 -198 80.5t-80 201.5q0 122 80.5 202.5t197.5 80.5q165 0 235 -140l-79 -50q-54 102 -155 102zM276 584l60 136h111l-100 -136h-71z" />
    <glyph glyph-name="Ccircumflex" unicode="&#x108;" horiz-adv-x="762" 
d="M406 637q-111 0 -185.5 -79t-74.5 -198q0 -118 75 -197.5t185 -79.5q164 0 232 164l92 -41q-37 -101 -118 -159.5t-206 -58.5q-156 0 -260.5 105.5t-104.5 266.5q0 160 105.5 266t259.5 106q217 0 312 -188l-87 -51q-79 144 -225 144zM246 762l119 116h99l118 -116h-88
l-80 53l-80 -53h-88z" />
    <glyph glyph-name="ccircumflex" unicode="&#x109;" horiz-adv-x="584" 
d="M318 465q-78 0 -130 -55.5t-52 -139.5t52 -139t130 -55q112 0 161 115l83 -38q-28 -76 -89.5 -120.5t-155.5 -44.5q-118 0 -198 80.5t-80 201.5q0 122 80.5 202.5t197.5 80.5q165 0 235 -140l-79 -50q-54 102 -155 102zM164 584l109 136h99l108 -136h-82l-76 70l-77 -70
h-81z" />
    <glyph glyph-name="Cdotaccent" unicode="&#x10a;" horiz-adv-x="762" 
d="M406 637q-111 0 -185.5 -79t-74.5 -198q0 -118 75 -197.5t185 -79.5q164 0 232 164l92 -41q-37 -101 -118 -159.5t-206 -58.5q-156 0 -260.5 105.5t-104.5 266.5q0 160 105.5 266t259.5 106q217 0 312 -188l-87 -51q-79 144 -225 144zM357 826q0 26 15.5 41.5t41.5 15.5
t41.5 -15.5t15.5 -41.5t-15.5 -41.5t-41.5 -15.5t-41.5 15.5t-15.5 41.5z" />
    <glyph glyph-name="cdotaccent" unicode="&#x10b;" horiz-adv-x="584" 
d="M318 465q-78 0 -130 -55.5t-52 -139.5t52 -139t130 -55q112 0 161 115l83 -38q-28 -76 -89.5 -120.5t-155.5 -44.5q-118 0 -198 80.5t-80 201.5q0 122 80.5 202.5t197.5 80.5q165 0 235 -140l-79 -50q-54 102 -155 102zM265 673q0 25 15.5 41t41.5 16t41.5 -16t15.5 -41
t-15.5 -41t-41.5 -16t-41.5 16t-15.5 41z" />
    <glyph glyph-name="Ccaron" unicode="&#x10c;" horiz-adv-x="762" 
d="M406 637q-111 0 -185.5 -79t-74.5 -198q0 -118 75 -197.5t185 -79.5q164 0 232 164l92 -41q-37 -101 -118 -159.5t-206 -58.5q-156 0 -260.5 105.5t-104.5 266.5q0 160 105.5 266t259.5 106q217 0 312 -188l-87 -51q-79 144 -225 144zM365 762l-119 116h88l80 -53l80 53
h88l-118 -116h-99z" />
    <glyph glyph-name="ccaron" unicode="&#x10d;" horiz-adv-x="584" 
d="M318 465q-78 0 -130 -55.5t-52 -139.5t52 -139t130 -55q112 0 161 115l83 -38q-28 -76 -89.5 -120.5t-155.5 -44.5q-118 0 -198 80.5t-80 201.5q0 122 80.5 202.5t197.5 80.5q165 0 235 -140l-79 -50q-54 102 -155 102zM273 584l-109 136h81l77 -70l76 70h82l-108 -136
h-99z" />
    <glyph glyph-name="Dcaron" unicode="&#x10e;" horiz-adv-x="685" 
d="M73 0v720h209q163 0 262.5 -98t99.5 -262q0 -157 -101.5 -258.5t-266.5 -101.5h-203zM172 629v-538h98q125 0 198 74.5t73 194.5q0 123 -71.5 196t-191.5 73h-106zM249 762l-119 116h88l80 -53l80 53h88l-118 -116h-99z" />
    <glyph glyph-name="dcaron" unicode="&#x10f;" horiz-adv-x="643" 
d="M138 270q0 -86 47.5 -141t123.5 -55q77 0 125.5 53.5t48.5 142.5q0 91 -48.5 144t-125.5 53q-76 0 -123.5 -55.5t-47.5 -141.5zM39 270q0 125 74.5 204t180.5 79q117 0 186 -103v270h94v-720h-94v88q-66 -100 -189 -100q-107 0 -179.5 79.5t-72.5 202.5zM624 554l2 166
h97l-49 -166h-50z" />
    <glyph glyph-name="Dcroat" unicode="&#x110;" horiz-adv-x="719" 
d="M14 328v65h93v327h209q163 0 262.5 -98t99.5 -262q0 -157 -101.5 -258.5t-266.5 -101.5h-203v328h-93zM206 629v-236h219v-65h-219v-237h98q125 0 198 74.5t73 194.5q0 123 -71.5 196t-191.5 73h-106z" />
    <glyph glyph-name="dcroat" unicode="&#x111;" horiz-adv-x="643" 
d="M268 655h210v65h94v-65h93v-65h-93v-590h-94v88q-66 -100 -189 -100q-107 0 -179.5 79.5t-72.5 202.5q0 125 74.5 204t180.5 79q117 0 186 -103v140h-210v65zM136 270q0 -86 47.5 -141t123.5 -55q77 0 125.5 53.5t48.5 142.5q0 91 -48.5 144t-125.5 53
q-76 0 -123.5 -55.5t-47.5 -141.5z" />
    <glyph glyph-name="Emacron" unicode="&#x112;" horiz-adv-x="538" 
d="M73 0v720h409v-91h-310v-208h301v-91h-301v-239h319v-91h-418zM150 801v72h268v-72h-268z" />
    <glyph glyph-name="emacron" unicode="&#x113;" horiz-adv-x="600" 
d="M139 319h326q-9 68 -51 107.5t-108 39.5q-65 0 -110 -41.5t-57 -105.5zM558 244h-421q5 -76 53 -122.5t124 -46.5q103 0 139 92l92 -15q-22 -75 -83.5 -119.5t-147.5 -44.5q-121 0 -197.5 77t-76.5 205q0 124 78 203.5t188 79.5q115 0 185 -77.5t70 -189.5q0 -22 -3 -42z
M176 648v72h268v-72h-268z" />
    <glyph glyph-name="Ebreve" unicode="&#x114;" horiz-adv-x="538" 
d="M73 0v720h409v-91h-310v-208h301v-91h-301v-239h319v-91h-418zM365 878h55q-2 -54 -39.5 -88t-96.5 -34t-95.5 34t-40.5 88h55q20 -50 81 -50t81 50z" />
    <glyph glyph-name="ebreve" unicode="&#x115;" horiz-adv-x="600" 
d="M139 319h326q-9 68 -51 107.5t-108 39.5q-65 0 -110 -41.5t-57 -105.5zM558 244h-421q5 -76 53 -122.5t124 -46.5q103 0 139 92l92 -15q-22 -75 -83.5 -119.5t-147.5 -44.5q-121 0 -197.5 77t-76.5 205q0 124 78 203.5t188 79.5q115 0 185 -77.5t70 -189.5q0 -22 -3 -42z
M388 720h57q0 -60 -38 -98t-98 -38t-97 38t-39 98h56q16 -64 80 -64q65 0 79 64z" />
    <glyph glyph-name="Edotaccent" unicode="&#x116;" horiz-adv-x="538" 
d="M73 0v720h409v-91h-310v-208h301v-91h-301v-239h319v-91h-418zM227 826q0 26 15.5 41.5t41.5 15.5t41.5 -15.5t15.5 -41.5t-15.5 -41.5t-41.5 -15.5t-41.5 15.5t-15.5 41.5z" />
    <glyph glyph-name="edotaccent" unicode="&#x117;" horiz-adv-x="600" 
d="M139 319h326q-9 68 -51 107.5t-108 39.5q-65 0 -110 -41.5t-57 -105.5zM558 244h-421q5 -76 53 -122.5t124 -46.5q103 0 139 92l92 -15q-22 -75 -83.5 -119.5t-147.5 -44.5q-121 0 -197.5 77t-76.5 205q0 124 78 203.5t188 79.5q115 0 185 -77.5t70 -189.5q0 -22 -3 -42z
M253 673q0 25 15.5 41t41.5 16t41.5 -16t15.5 -41t-15.5 -41t-41.5 -16t-41.5 16t-15.5 41z" />
    <glyph glyph-name="Eogonek" unicode="&#x118;" horiz-adv-x="538" 
d="M73 0v720h409v-91h-310v-208h301v-91h-301v-239h319v-91q-69 -41 -69 -86q0 -38 41 -38q22 0 48 18l19 -33q-30 -42 -83 -42q-40 0 -65 21t-25 54q0 64 86 106h-370z" />
    <glyph glyph-name="eogonek" unicode="&#x119;" horiz-adv-x="600" 
d="M558 244h-421q5 -76 53 -122.5t124 -46.5q104 0 139 94l91 -19q-20 -70 -74.5 -112.5t-133.5 -48.5q-48 -35 -48 -73q0 -37 42 -37q24 0 47 17l19 -32q-31 -43 -83 -43q-40 0 -65 21.5t-25 53.5q0 55 62 93q-110 9 -177.5 85t-67.5 196q0 124 78 203.5t188 79.5
q115 0 185 -77.5t70 -189.5q0 -22 -3 -42zM139 319h326q-9 68 -51 107.5t-108 39.5q-65 0 -110 -41.5t-57 -105.5z" />
    <glyph glyph-name="Ecaron" unicode="&#x11a;" horiz-adv-x="538" 
d="M73 0v720h409v-91h-310v-208h301v-91h-301v-239h319v-91h-418zM235 762l-119 116h88l80 -53l80 53h88l-118 -116h-99z" />
    <glyph glyph-name="ecaron" unicode="&#x11b;" horiz-adv-x="600" 
d="M139 319h326q-9 68 -51 107.5t-108 39.5q-65 0 -110 -41.5t-57 -105.5zM558 244h-421q5 -76 53 -122.5t124 -46.5q103 0 139 92l92 -15q-22 -75 -83.5 -119.5t-147.5 -44.5q-121 0 -197.5 77t-76.5 205q0 124 78 203.5t188 79.5q115 0 185 -77.5t70 -189.5q0 -22 -3 -42z
M261 584l-109 136h81l77 -70l76 70h82l-108 -136h-99z" />
    <glyph glyph-name="Gcircumflex" unicode="&#x11c;" horiz-adv-x="789" 
d="M406 732q199 0 300 -166l-85 -54q-80 125 -215 125q-111 0 -185.5 -79t-74.5 -198t75.5 -198t191.5 -79q95 0 157 55t70 145h-273v90h367v-373h-90v109q-36 -58 -98 -89.5t-141 -31.5q-154 0 -259 106t-105 266t105.5 266t259.5 106zM248 762l119 116h99l118 -116h-88
l-80 53l-80 -53h-88z" />
    <glyph glyph-name="gcircumflex" unicode="&#x11d;" horiz-adv-x="629" 
d="M560 541v-469q0 -118 -66.5 -185t-188.5 -67q-107 0 -168.5 46.5t-77.5 117.5l94 13q34 -92 152 -92q79 0 120 43.5t41 125.5v40q-61 -96 -177 -96q-106 0 -176.5 75.5t-70.5 191.5q0 118 72 193t174 75q114 0 178 -99v87h94zM141 285q0 -80 45.5 -131t118.5 -51
t119 49.5t46 132.5q0 84 -45.5 133t-119.5 49q-73 0 -118.5 -51.5t-45.5 -130.5zM146 584l109 136h99l108 -136h-82l-76 70l-77 -70h-81z" />
    <glyph glyph-name="Gbreve" unicode="&#x11e;" horiz-adv-x="789" 
d="M406 732q199 0 300 -166l-85 -54q-80 125 -215 125q-111 0 -185.5 -79t-74.5 -198t75.5 -198t191.5 -79q95 0 157 55t70 145h-273v90h367v-373h-90v109q-36 -58 -98 -89.5t-141 -31.5q-154 0 -259 106t-105 266t105.5 266t259.5 106zM497 878h55q-2 -54 -39.5 -88
t-96.5 -34t-95.5 34t-40.5 88h55q20 -50 81 -50t81 50z" />
    <glyph glyph-name="gbreve" unicode="&#x11f;" horiz-adv-x="629" 
d="M560 541v-469q0 -118 -66.5 -185t-188.5 -67q-107 0 -168.5 46.5t-77.5 117.5l94 13q34 -92 152 -92q79 0 120 43.5t41 125.5v40q-61 -96 -177 -96q-106 0 -176.5 75.5t-70.5 191.5q0 118 72 193t174 75q114 0 178 -99v87h94zM141 285q0 -80 45.5 -131t118.5 -51
t119 49.5t46 132.5q0 84 -45.5 133t-119.5 49q-73 0 -118.5 -51.5t-45.5 -130.5zM383 720h57q0 -60 -38 -98t-98 -38t-97 38t-39 98h56q16 -64 80 -64q65 0 79 64z" />
    <glyph glyph-name="Gdotaccent" unicode="&#x120;" horiz-adv-x="789" 
d="M406 732q199 0 300 -166l-85 -54q-80 125 -215 125q-111 0 -185.5 -79t-74.5 -198t75.5 -198t191.5 -79q95 0 157 55t70 145h-273v90h367v-373h-90v109q-36 -58 -98 -89.5t-141 -31.5q-154 0 -259 106t-105 266t105.5 266t259.5 106zM357 826q0 26 15.5 41.5t41.5 15.5
t41.5 -15.5t15.5 -41.5t-15.5 -41.5t-41.5 -15.5t-41.5 15.5t-15.5 41.5z" />
    <glyph glyph-name="gdotaccent" unicode="&#x121;" horiz-adv-x="629" 
d="M560 541v-469q0 -118 -66.5 -185t-188.5 -67q-107 0 -168.5 46.5t-77.5 117.5l94 13q34 -92 152 -92q79 0 120 43.5t41 125.5v40q-61 -96 -177 -96q-106 0 -176.5 75.5t-70.5 191.5q0 118 72 193t174 75q114 0 178 -99v87h94zM141 285q0 -80 45.5 -131t118.5 -51
t119 49.5t46 132.5q0 84 -45.5 133t-119.5 49q-73 0 -118.5 -51.5t-45.5 -130.5zM247 673q0 25 15.5 41t41.5 16t41.5 -16t15.5 -41t-15.5 -41t-41.5 -16t-41.5 16t-15.5 41z" />
    <glyph glyph-name="Gcommaaccent" unicode="&#x122;" horiz-adv-x="789" 
d="M406 732q199 0 300 -166l-85 -54q-80 125 -215 125q-111 0 -185.5 -79t-74.5 -198t75.5 -198t191.5 -79q95 0 157 55t70 145h-273v90h367v-373h-90v109q-36 -58 -98 -89.5t-141 -31.5q-154 0 -259 106t-105 266t105.5 266t259.5 106zM348 -191l2 156h97l-49 -156h-50z
" />
    <glyph glyph-name="gcommaaccent" unicode="&#x123;" horiz-adv-x="629" 
d="M560 541v-469q0 -118 -66.5 -185t-188.5 -67q-107 0 -168.5 46.5t-77.5 117.5l94 13q34 -92 152 -92q79 0 120 43.5t41 125.5v40q-61 -96 -177 -96q-106 0 -176.5 75.5t-70.5 191.5q0 118 72 193t174 75q114 0 178 -99v87h94zM141 285q0 -80 45.5 -131t118.5 -51
t119 49.5t46 132.5q0 84 -45.5 133t-119.5 49q-73 0 -118.5 -51.5t-45.5 -130.5zM278 574l2 166h97l-49 -166h-50z" />
    <glyph glyph-name="Hcircumflex" unicode="&#x124;" horiz-adv-x="718" 
d="M546 0v330h-374v-330h-99v720h99v-299h374v299h99v-720h-99zM197 762l119 116h99l118 -116h-88l-80 53l-80 -53h-88z" />
    <glyph glyph-name="hcircumflex" unicode="&#x125;" horiz-adv-x="565" 
d="M326 553q66 0 110 -35t58 -92q8 -34 8 -108v-318h-94v300q0 84 -24.5 124.5t-87.5 40.5q-69 0 -101 -43.5t-32 -130.5v-291h-94v720h94v-262q57 95 163 95zM-54 762l119 116h99l118 -116h-88l-80 53l-80 -53h-88z" />
    <glyph glyph-name="Hbar" unicode="&#x126;" horiz-adv-x="786" 
d="M14 541v65h93v114h99v-114h374v114h99v-114h93v-65h-93v-541h-99v330h-374v-330h-99v541h-93zM206 421h374v120h-374v-120z" />
    <glyph glyph-name="hbar" unicode="&#x127;" horiz-adv-x="565" 
d="M373 590h-210v-132q57 95 163 95q66 0 110 -35t58 -92q8 -34 8 -108v-318h-94v300q0 53 -5 79q-17 86 -107 86q-48 0 -80 -24t-44 -66q-9 -29 -9 -84v-291h-94v590h-93v65h93v65h94v-65h210v-65z" />
    <glyph glyph-name="Itilde" unicode="&#x128;" horiz-adv-x="245" 
d="M172 720v-720h-99v720h99zM113 784q-39 19 -56 19q-30 0 -33 -40l-58 7q1 51 26.5 79.5t65.5 28.5q29 0 75 -23q39 -20 56 -20q28 0 33 41l58 -7q-1 -51 -26.5 -80t-65.5 -29q-27 0 -75 24z" />
    <glyph glyph-name="itilde" unicode="&#x129;" horiz-adv-x="232" 
d="M106 624q-39 19 -56 19q-30 0 -33 -40l-58 7q1 51 26.5 79.5t65.5 28.5q29 0 75 -23q39 -20 56 -20q28 0 33 41l58 -7q-1 -51 -26.5 -80t-65.5 -29q-27 0 -75 24zM163 541v-541h-94v541h94z" />
    <glyph glyph-name="Imacron" unicode="&#x12a;" horiz-adv-x="245" 
d="M172 720v-720h-99v720h99zM-11 801v72h268v-72h-268z" />
    <glyph glyph-name="imacron" unicode="&#x12b;" horiz-adv-x="232" 
d="M-18 648v72h268v-72h-268zM163 541v-541h-94v541h94z" />
    <glyph glyph-name="Ibreve" unicode="&#x12c;" horiz-adv-x="245" 
d="M172 720v-720h-99v720h99zM204 878h55q-2 -54 -39.5 -88t-96.5 -34t-95.5 34t-40.5 88h55q20 -50 81 -50t81 50z" />
    <glyph glyph-name="ibreve" unicode="&#x12d;" horiz-adv-x="232" 
d="M195 720h57q0 -60 -38 -98t-98 -38t-97 38t-39 98h56q16 -64 80 -64q65 0 79 64zM163 541v-541h-94v541h94z" />
    <glyph glyph-name="Iogonek" unicode="&#x12e;" horiz-adv-x="245" 
d="M123 0h-50v720h99v-720q-70 -41 -70 -86q0 -38 42 -38q22 0 47 18l19 -33q-30 -42 -83 -42q-40 0 -65 21t-25 54q0 63 86 106z" />
    <glyph glyph-name="iogonek" unicode="&#x12f;" horiz-adv-x="232" 
d="M114 0h-45v541h94v-541q-70 -41 -70 -86q0 -38 42 -38q22 0 47 18l19 -33q-30 -42 -83 -42q-40 0 -65 21t-25 54q0 63 86 106zM59 673q0 25 15.5 41t41.5 16t41.5 -16t15.5 -41t-15.5 -41t-41.5 -16t-41.5 16t-15.5 41z" />
    <glyph glyph-name="Idotaccent" unicode="&#x130;" horiz-adv-x="245" 
d="M172 720v-720h-99v720h99zM66 826q0 26 16 41.5t41 15.5t41 -15.5t16 -41.5t-16 -41.5t-41 -15.5t-41 15.5t-16 41.5z" />
    <glyph glyph-name="dotlessi" unicode="&#x131;" horiz-adv-x="232" 
d="M163 541v-541h-94v541h94z" />
    <glyph glyph-name="IJ" unicode="&#x132;" horiz-adv-x="634" 
d="M172 720v-720h-99v720h99zM356 82q114 0 114 125v513h99v-528q0 -95 -55 -149.5t-150 -54.5q-54 0 -91 11l6 93q40 -10 77 -10z" />
    <glyph glyph-name="ij" unicode="&#x133;" horiz-adv-x="464" 
d="M163 541v-541h-94v541h94zM395 541v-690l-94 -20v710h94zM59 673q0 25 15.5 41t41.5 16t41.5 -16t15.5 -41t-15.5 -41t-41.5 -16t-41.5 16t-15.5 41zM291 673q0 25 15.5 41t41.5 16t41.5 -16t15.5 -41t-15.5 -41t-41.5 -16t-41.5 16t-15.5 41z" />
    <glyph glyph-name="Jcircumflex" unicode="&#x134;" horiz-adv-x="389" 
d="M111 82q114 0 114 125v513h99v-528q0 -95 -55 -149.5t-150 -54.5q-54 0 -91 11l6 93q40 -10 77 -10zM105 762l119 116h99l118 -116h-88l-80 53l-80 -53h-88z" />
    <glyph glyph-name="jcircumflex" unicode="&#x135;" horiz-adv-x="232" 
d="M163 541v-690l-94 -20v710h94zM-42 584l109 136h99l108 -136h-82l-76 70l-77 -70h-81z" />
    <glyph glyph-name="Kcommaaccent" unicode="&#x136;" horiz-adv-x="675" 
d="M664 0h-130l-242 340l-120 -131v-209h-99v720h99v-375l336 375h132l-278 -304zM294 -191l2 156h97l-49 -156h-50z" />
    <glyph glyph-name="kcommaaccent" unicode="&#x137;" horiz-adv-x="545" 
d="M537 0h-123l-166 234l-85 -96v-138h-94v720h94v-448l236 269h123l-209 -233zM227 -191l2 156h97l-49 -156h-50z" />
    <glyph glyph-name="kgreenlandic" unicode="&#x138;" horiz-adv-x="545" 
d="M537 0h-123l-166 234l-85 -96v-138h-94v541h94v-269l236 269h123l-209 -233z" />
    <glyph glyph-name="Lacute" unicode="&#x139;" horiz-adv-x="500" 
d="M73 0v720h99v-629h299v-91h-398zM74 763l50 115h121l-100 -115h-71z" />
    <glyph glyph-name="lacute" unicode="&#x13a;" horiz-adv-x="232" 
d="M163 720v-720h-94v720h94zM71 763l50 115h121l-100 -115h-71z" />
    <glyph glyph-name="Lcommaaccent" unicode="&#x13b;" horiz-adv-x="500" 
d="M73 0v720h99v-629h299v-91h-398zM223 -191l2 156h97l-49 -156h-50z" />
    <glyph glyph-name="lcommaaccent" unicode="&#x13c;" horiz-adv-x="232" 
d="M163 720v-720h-94v720h94zM67 -191l2 156h97l-49 -156h-50z" />
    <glyph glyph-name="Lcaron" unicode="&#x13d;" horiz-adv-x="500" 
d="M73 0v720h99v-629h299v-91h-398zM233 554l2 166h97l-49 -166h-50z" />
    <glyph glyph-name="lcaron" unicode="&#x13e;" horiz-adv-x="232" 
d="M163 720v-720h-94v720h94zM213 554l2 166h97l-49 -166h-50z" />
    <glyph glyph-name="Ldot" unicode="&#x13f;" horiz-adv-x="500" 
d="M73 0v720h99v-629h299v-91h-398zM312 380q0 26 16 41.5t41 15.5t41 -15.5t16 -41.5t-16 -41.5t-41 -15.5t-41 15.5t-16 41.5z" />
    <glyph glyph-name="ldot" unicode="&#x140;" horiz-adv-x="346" 
d="M163 720v-720h-94v720h94zM232 271q0 25 16 41t41 16t41 -16t16 -41t-16 -41t-41 -16t-41 16t-16 41z" />
    <glyph glyph-name="Lslash" unicode="&#x141;" horiz-adv-x="534" 
d="M-9 262l116 67v391h99v-337l176 103l32 -55l-208 -123v-217h299v-91h-398v254l-84 -47z" />
    <glyph glyph-name="lslash" unicode="&#x142;" horiz-adv-x="336" 
d="M211 381l93 54l32 -55l-125 -74v-306h-94v255l-85 -48l-32 55l117 68v390h94v-339z" />
    <glyph glyph-name="Nacute" unicode="&#x143;" horiz-adv-x="717" 
d="M540 0l-374 552v-552h-93v720h100l378 -557v557h93v-720h-104zM319 763l50 115h121l-100 -115h-71z" />
    <glyph glyph-name="nacute" unicode="&#x144;" horiz-adv-x="565" 
d="M326 553q66 0 110 -35t58 -92q8 -34 8 -108v-318h-94v300q0 86 -24 125.5t-88 39.5q-69 0 -101 -43.5t-32 -130.5v-291h-94v541h94v-83q57 95 163 95zM247 584l60 136h111l-100 -136h-71z" />
    <glyph glyph-name="Ncommaaccent" unicode="&#x145;" horiz-adv-x="717" 
d="M540 0l-374 552v-552h-93v720h100l378 -557v557h93v-720h-104zM310 -191l2 156h97l-49 -156h-50z" />
    <glyph glyph-name="ncommaaccent" unicode="&#x146;" horiz-adv-x="565" 
d="M326 553q66 0 110 -35t58 -92q8 -34 8 -108v-318h-94v300q0 86 -24 125.5t-88 39.5q-69 0 -101 -43.5t-32 -130.5v-291h-94v541h94v-83q57 95 163 95zM237 -191l2 156h97l-49 -156h-50z" />
    <glyph glyph-name="Ncaron" unicode="&#x147;" horiz-adv-x="717" 
d="M540 0l-374 552v-552h-93v720h100l378 -557v557h93v-720h-104zM320 762l-119 116h88l80 -53l80 53h88l-118 -116h-99z" />
    <glyph glyph-name="ncaron" unicode="&#x148;" horiz-adv-x="565" 
d="M326 553q66 0 110 -35t58 -92q8 -34 8 -108v-318h-94v300q0 86 -24 125.5t-88 39.5q-69 0 -101 -43.5t-32 -130.5v-291h-94v541h94v-83q57 95 163 95zM243 584l-109 136h81l77 -70l76 70h82l-108 -136h-99z" />
    <glyph glyph-name="napostrophe" unicode="&#x149;" horiz-adv-x="565" 
d="M326 553q66 0 110 -35t58 -92q8 -34 8 -108v-318h-94v300q0 86 -24 125.5t-88 39.5q-69 0 -101 -43.5t-32 -130.5v-291h-94v541h94v-83q57 95 163 95zM72 564l2 166h97l-49 -166h-50z" />
    <glyph glyph-name="Eng" unicode="&#x14a;" horiz-adv-x="717" 
d="M431 -75q120 0 120 131v9l-385 491v-556h-93v720h89l389 -495v495h93v-685q0 -95 -55 -149.5t-150 -54.5q-54 0 -91 11l6 93q40 -10 77 -10z" />
    <glyph glyph-name="eng" unicode="&#x14b;" horiz-adv-x="565" 
d="M326 553q66 0 110 -35t58 -92q8 -34 8 -108v-467l-94 -20v469q0 84 -24.5 124.5t-87.5 40.5q-69 0 -101 -43.5t-32 -130.5v-291h-94v541h94v-83q57 95 163 95z" />
    <glyph glyph-name="Omacron" unicode="&#x14c;" horiz-adv-x="812" 
d="M145 360q0 -118 75 -197.5t186 -79.5q109 0 185 81.5t76 195.5q0 118 -75 197.5t-186 79.5t-186 -79t-75 -198zM41 360q0 161 105 266.5t260 105.5t260 -105.5t105 -266.5q0 -155 -106 -263.5t-259 -108.5q-155 0 -260 105.5t-105 266.5zM272 801v72h268v-72h-268z" />
    <glyph glyph-name="omacron" unicode="&#x14d;" horiz-adv-x="638" 
d="M39 270q0 122 80.5 202.5t198.5 80.5q119 0 199.5 -80.5t80.5 -202.5q0 -117 -81 -199.5t-199 -82.5t-198.5 80.5t-80.5 201.5zM136 270q0 -84 52.5 -139t130.5 -55q77 0 129.5 57t52.5 137q0 84 -52 139.5t-130 55.5t-130.5 -55.5t-52.5 -139.5zM185 648v72h268v-72
h-268z" />
    <glyph glyph-name="Obreve" unicode="&#x14e;" horiz-adv-x="812" 
d="M145 360q0 -118 75 -197.5t186 -79.5q109 0 185 81.5t76 195.5q0 118 -75 197.5t-186 79.5t-186 -79t-75 -198zM41 360q0 161 105 266.5t260 105.5t260 -105.5t105 -266.5q0 -155 -106 -263.5t-259 -108.5q-155 0 -260 105.5t-105 266.5zM487 878h55q-2 -54 -39.5 -88
t-96.5 -34t-95.5 34t-40.5 88h55q20 -50 81 -50t81 50z" />
    <glyph glyph-name="obreve" unicode="&#x14f;" horiz-adv-x="638" 
d="M39 270q0 122 80.5 202.5t198.5 80.5q119 0 199.5 -80.5t80.5 -202.5q0 -117 -81 -199.5t-199 -82.5t-198.5 80.5t-80.5 201.5zM136 270q0 -84 52.5 -139t130.5 -55q77 0 129.5 57t52.5 137q0 84 -52 139.5t-130 55.5t-130.5 -55.5t-52.5 -139.5zM397 720h57
q0 -60 -38 -98t-98 -38t-97 38t-39 98h56q16 -64 80 -64q65 0 79 64z" />
    <glyph glyph-name="Ohungarumlaut" unicode="&#x150;" horiz-adv-x="812" 
d="M145 360q0 -118 75 -197.5t186 -79.5q109 0 185 81.5t76 195.5q0 118 -75 197.5t-186 79.5t-186 -79t-75 -198zM41 360q0 161 105 266.5t260 105.5t260 -105.5t105 -266.5q0 -155 -106 -263.5t-259 -108.5q-155 0 -260 105.5t-105 266.5zM292 757l56 121h108l-100 -121
h-64zM434 757l55 121h109l-100 -121h-64z" />
    <glyph glyph-name="ohungarumlaut" unicode="&#x151;" horiz-adv-x="638" 
d="M39 270q0 122 80.5 202.5t198.5 80.5q119 0 199.5 -80.5t80.5 -202.5q0 -117 -81 -199.5t-199 -82.5t-198.5 80.5t-80.5 201.5zM136 270q0 -84 52.5 -139t130.5 -55q77 0 129.5 57t52.5 137q0 84 -52 139.5t-130 55.5t-130.5 -55.5t-52.5 -139.5zM203 584l60 136h104
l-100 -136h-64zM349 584l60 136h104l-100 -136h-64z" />
    <glyph glyph-name="OE" unicode="&#x152;" horiz-adv-x="1132" 
d="M406 732q166 0 261 -118v106h409v-91h-310v-208h301v-91h-301v-239h319v-91h-418v109q-100 -121 -261 -121q-155 0 -260 105.5t-105 266.5t105 266.5t260 105.5zM145 360q0 -118 75 -197.5t186 -79.5t186 78.5t75 198.5q0 124 -74.5 200.5t-186.5 76.5q-111 0 -186 -79
t-75 -198z" />
    <glyph glyph-name="oe" unicode="&#x153;" horiz-adv-x="1061" 
d="M318 553q72 0 132.5 -32t97.5 -88q37 56 94.5 88t124.5 32q115 0 185 -77.5t70 -189.5q0 -22 -3 -42h-421q5 -76 53 -122.5t123 -46.5q102 0 138 89l95 -7q-21 -76 -83.5 -122.5t-150.5 -46.5q-74 0 -133.5 31t-94.5 87q-38 -54 -97.5 -86t-129.5 -32q-118 0 -198.5 80.5
t-80.5 201.5q0 122 80.5 202.5t198.5 80.5zM136 270q0 -84 52.5 -139t130.5 -55q77 0 129.5 57t52.5 137q0 84 -52 139.5t-130 55.5t-130.5 -55.5t-52.5 -139.5zM600 319h326q-9 68 -51 107.5t-108 39.5q-65 0 -110 -41.5t-57 -105.5z" />
    <glyph glyph-name="Racute" unicode="&#x154;" horiz-adv-x="605" 
d="M308 312h-136v-312h-99v720h255q107 0 166.5 -56.5t59.5 -147.5q0 -138 -146 -187l169 -329h-115zM324 629h-152v-226h145q64 0 98.5 30.5t34.5 82.5q0 53 -32.5 83t-93.5 30zM239 763l50 115h121l-100 -115h-71z" />
    <glyph glyph-name="racute" unicode="&#x155;" horiz-adv-x="365" 
d="M351 551v-98q-19 3 -42 3q-111 0 -138 -114q-8 -34 -8 -99v-243h-94v541h94v-105q22 55 62.5 86t93.5 31q21 0 32 -2zM158 584l60 136h111l-100 -136h-71z" />
    <glyph glyph-name="Rcommaaccent" unicode="&#x156;" horiz-adv-x="605" 
d="M308 312h-136v-312h-99v720h255q107 0 166.5 -56.5t59.5 -147.5q0 -138 -146 -187l169 -329h-115zM324 629h-152v-226h145q64 0 98.5 30.5t34.5 82.5q0 53 -32.5 83t-93.5 30zM257 -191l2 156h97l-49 -156h-50z" />
    <glyph glyph-name="rcommaaccent" unicode="&#x157;" horiz-adv-x="365" 
d="M351 551v-98q-19 3 -42 3q-111 0 -138 -114q-8 -34 -8 -99v-243h-94v541h94v-105q22 55 62.5 86t93.5 31q21 0 32 -2zM68 -191l2 156h97l-49 -156h-50z" />
    <glyph glyph-name="Rcaron" unicode="&#x158;" horiz-adv-x="605" 
d="M308 312h-136v-312h-99v720h255q107 0 166.5 -56.5t59.5 -147.5q0 -138 -146 -187l169 -329h-115zM324 629h-152v-226h145q64 0 98.5 30.5t34.5 82.5q0 53 -32.5 83t-93.5 30zM235 762l-119 116h88l80 -53l80 53h88l-118 -116h-99z" />
    <glyph glyph-name="rcaron" unicode="&#x159;" horiz-adv-x="365" 
d="M351 551v-98q-19 3 -42 3q-111 0 -138 -114q-8 -34 -8 -99v-243h-94v541h94v-105q22 55 62.5 86t93.5 31q21 0 32 -2zM154 584l-109 136h81l77 -70l76 70h82l-108 -136h-99z" />
    <glyph glyph-name="Sacute" unicode="&#x15a;" horiz-adv-x="581" 
d="M252 443l148 -58q76 -30 114 -77.5t38 -122.5q0 -84 -63 -140.5t-175 -56.5q-114 0 -183 53t-96 143l91 39q46 -140 185 -140q64 0 101 26.5t37 74.5q0 42 -22.5 68.5t-78.5 47.5l-136 53q-146 55 -146 182q0 83 63 140t159 57q159 0 232 -151l-84 -45q-58 101 -146 101
q-55 0 -88.5 -28t-33.5 -70q0 -34 20 -56.5t64 -39.5zM247 763l50 115h121l-100 -115h-71z" />
    <glyph glyph-name="sacute" unicode="&#x15b;" horiz-adv-x="443" 
d="M239 74q41 0 63 17.5t22 46.5q0 43 -61 71l-99 46q-112 52 -112 148q0 60 47 105t120 45q106 0 171 -93l-69 -57q-47 64 -103 64q-34 0 -55 -17.5t-21 -43.5q0 -40 51 -63l111 -51q112 -52 112 -153q0 -68 -49.5 -109.5t-128.5 -41.5q-153 0 -209 127l77 50
q44 -91 133 -91zM176 584l60 136h111l-100 -136h-71z" />
    <glyph glyph-name="Scircumflex" unicode="&#x15c;" horiz-adv-x="581" 
d="M252 443l148 -58q76 -30 114 -77.5t38 -122.5q0 -84 -63 -140.5t-175 -56.5q-114 0 -183 53t-96 143l91 39q46 -140 185 -140q64 0 101 26.5t37 74.5q0 42 -22.5 68.5t-78.5 47.5l-136 53q-146 55 -146 182q0 83 63 140t159 57q159 0 232 -151l-84 -45q-58 101 -146 101
q-55 0 -88.5 -28t-33.5 -70q0 -34 20 -56.5t64 -39.5zM126 762l119 116h99l118 -116h-88l-80 53l-80 -53h-88z" />
    <glyph glyph-name="scircumflex" unicode="&#x15d;" horiz-adv-x="443" 
d="M239 74q41 0 63 17.5t22 46.5q0 43 -61 71l-99 46q-112 52 -112 148q0 60 47 105t120 45q106 0 171 -93l-69 -57q-47 64 -103 64q-34 0 -55 -17.5t-21 -43.5q0 -40 51 -63l111 -51q112 -52 112 -153q0 -68 -49.5 -109.5t-128.5 -41.5q-153 0 -209 127l77 50
q44 -91 133 -91zM64 584l109 136h99l108 -136h-82l-76 70l-77 -70h-81z" />
    <glyph glyph-name="Scedilla" unicode="&#x15e;" horiz-adv-x="581" 
d="M288 732q159 0 232 -151l-84 -45q-58 101 -146 101q-55 0 -88.5 -28t-33.5 -70q0 -34 20 -56.5t64 -39.5l148 -58q75 -30 113.5 -77.5t38.5 -122.5q0 -86 -64.5 -141.5t-180.5 -55.5l-21 -30q9 3 30 3q37 0 59 -20t22 -50q0 -33 -26 -52.5t-78 -19.5q-55 0 -98 22l15 42
q37 -16 68 -16q43 0 43 25q0 26 -35 26q-18 0 -38 -10l-23 26l40 57q-179 21 -230 193l91 39q46 -140 185 -140q64 0 101 26.5t37 74.5q0 42 -22 68t-79 48l-136 53q-146 57 -146 182q0 83 63 140t159 57z" />
    <glyph glyph-name="scedilla" unicode="&#x15f;" horiz-adv-x="443" 
d="M122 -159l15 42q37 -16 68 -16q43 0 43 25q0 26 -35 26q-18 0 -38 -10l-23 26l40 57q-115 18 -163 124l77 50q44 -91 133 -91q41 0 63 17.5t22 46.5q0 24 -17.5 41.5t-57.5 35.5l-85 40q-112 52 -112 148q0 60 47 105t120 45q106 0 171 -93l-69 -57q-47 64 -103 64
q-34 0 -55 -17.5t-21 -43.5q0 -40 51 -63l97 -44q65 -30 95.5 -66.5t30.5 -93.5q0 -70 -50 -110.5t-132 -40.5l-21 -30q9 3 30 3q37 0 59 -20t22 -50q0 -33 -26 -52.5t-78 -19.5q-55 0 -98 22z" />
    <glyph glyph-name="Scaron" unicode="&#x160;" horiz-adv-x="581" 
d="M252 443l148 -58q76 -30 114 -77.5t38 -122.5q0 -84 -63 -140.5t-175 -56.5q-114 0 -183 53t-96 143l91 39q46 -140 185 -140q64 0 101 26.5t37 74.5q0 42 -22.5 68.5t-78.5 47.5l-136 53q-146 55 -146 182q0 83 63 140t159 57q159 0 232 -151l-84 -45q-58 101 -146 101
q-55 0 -88.5 -28t-33.5 -70q0 -34 20 -56.5t64 -39.5zM242 762l-119 116h88l80 -53l80 53h88l-118 -116h-99z" />
    <glyph glyph-name="scaron" unicode="&#x161;" horiz-adv-x="443" 
d="M239 74q41 0 63 17.5t22 46.5q0 43 -61 71l-99 46q-112 52 -112 148q0 60 47 105t120 45q106 0 171 -93l-69 -57q-47 64 -103 64q-34 0 -55 -17.5t-21 -43.5q0 -40 51 -63l111 -51q112 -52 112 -153q0 -68 -49.5 -109.5t-128.5 -41.5q-153 0 -209 127l77 50
q44 -91 133 -91zM173 584l-109 136h81l77 -70l76 70h82l-108 -136h-99z" />
    <glyph glyph-name="Tcedilla" unicode="&#x162;" horiz-adv-x="592" 
d="M294 -181q-56 0 -97 22l15 42q37 -16 68 -16q42 0 42 25q0 26 -35 26q-16 0 -38 -10l-22 26l46 66h-27v629h-227v91h554v-91h-228v-629h-28l-29 -42q9 3 30 3q37 0 58.5 -20t21.5 -50q0 -33 -26 -52.5t-78 -19.5z" />
    <glyph glyph-name="tcedilla" unicode="&#x163;" horiz-adv-x="322" 
d="M159 -181q-56 0 -97 22l15 42q37 -16 68 -16q42 0 42 25q0 26 -35 26q-16 0 -38 -10l-22 26l46 66h-24v457h-103v84h103v110l94 20v-130h103v-84h-103v-457h-26l-29 -42q9 3 30 3q37 0 58.5 -20t21.5 -50q0 -33 -26 -52.5t-78 -19.5z" />
    <glyph glyph-name="Tcaron" unicode="&#x164;" horiz-adv-x="604" 
d="M351 629v-629h-99v629h-227v91h554v-91h-228zM253 762l-119 116h88l80 -53l80 53h88l-118 -116h-99z" />
    <glyph glyph-name="tcaron" unicode="&#x165;" horiz-adv-x="332" 
d="M316 457h-103v-457h-94v457h-103v84h103v110l94 20v-130h103v-84zM254 579l2 166h97l-49 -166h-50z" />
    <glyph glyph-name="Tbar" unicode="&#x166;" horiz-adv-x="604" 
d="M351 327v-327h-99v327h-163v65h163v237h-227v91h554v-91h-228v-237h164v-65h-164z" />
    <glyph glyph-name="tbar" unicode="&#x167;" horiz-adv-x="332" 
d="M316 457h-103v-168h103v-65h-103v-224h-94v224h-103v65h103v168h-103v84h103v110l94 20v-130h103v-84z" />
    <glyph glyph-name="Utilde" unicode="&#x168;" horiz-adv-x="678" 
d="M518 720h93v-462q0 -127 -71 -198.5t-201 -71.5q-124 0 -198 73t-74 201v458h99v-453q0 -90 47.5 -137t129.5 -47q84 0 129.5 45.5t45.5 131.5v460zM329 784q-39 19 -56 19q-30 0 -33 -40l-58 7q1 51 26.5 79.5t65.5 28.5q29 0 75 -23q39 -20 56 -20q28 0 33 41l58 -7
q-1 -51 -26.5 -80t-65.5 -29q-27 0 -75 24z" />
    <glyph glyph-name="utilde" unicode="&#x169;" horiz-adv-x="565" 
d="M241 -12q-67 0 -112 36t-58 94q-8 32 -8 117v306h94v-306q0 -85 23 -122.5t88 -37.5q134 0 134 175v291h94v-541h-94v82q-26 -43 -67.5 -68.5t-93.5 -25.5zM272 624q-39 19 -56 19q-30 0 -33 -40l-58 7q1 51 26.5 79.5t65.5 28.5q29 0 75 -23q39 -20 56 -20q28 0 33 41
l58 -7q-1 -51 -26.5 -80t-65.5 -29q-27 0 -75 24z" />
    <glyph glyph-name="Umacron" unicode="&#x16a;" horiz-adv-x="678" 
d="M518 720h93v-462q0 -127 -71 -198.5t-201 -71.5q-124 0 -198 73t-74 201v458h99v-453q0 -90 47.5 -137t129.5 -47q84 0 129.5 45.5t45.5 131.5v460zM205 801v72h268v-72h-268z" />
    <glyph glyph-name="umacron" unicode="&#x16b;" horiz-adv-x="565" 
d="M241 -12q-67 0 -112 36t-58 94q-8 32 -8 117v306h94v-306q0 -85 23 -122.5t88 -37.5q134 0 134 175v291h94v-541h-94v82q-26 -43 -67.5 -68.5t-93.5 -25.5zM148 648v72h268v-72h-268z" />
    <glyph glyph-name="Ubreve" unicode="&#x16c;" horiz-adv-x="678" 
d="M518 720h93v-462q0 -127 -71 -198.5t-201 -71.5q-124 0 -198 73t-74 201v458h99v-453q0 -90 47.5 -137t129.5 -47q84 0 129.5 45.5t45.5 131.5v460zM420 878h55q-2 -54 -39.5 -88t-96.5 -34t-95.5 34t-40.5 88h55q20 -50 81 -50t81 50z" />
    <glyph glyph-name="ubreve" unicode="&#x16d;" horiz-adv-x="565" 
d="M241 -12q-67 0 -112 36t-58 94q-8 32 -8 117v306h94v-306q0 -85 23 -122.5t88 -37.5q134 0 134 175v291h94v-541h-94v82q-26 -43 -67.5 -68.5t-93.5 -25.5zM361 720h57q0 -60 -38 -98t-98 -38t-97 38t-39 98h56q16 -64 80 -64q65 0 79 64z" />
    <glyph glyph-name="Uring" unicode="&#x16e;" horiz-adv-x="678" 
d="M518 720h93v-462q0 -127 -71 -198.5t-201 -71.5q-124 0 -198 73t-74 201v458h99v-453q0 -90 47.5 -137t129.5 -47q84 0 129.5 45.5t45.5 131.5v460zM225 764q0 48 34 81t81 33t81 -33t34 -81t-34 -81t-81 -33t-81 33t-34 81zM286 764q0 -23 15.5 -39t38.5 -16t38.5 16
t15.5 39t-16 39t-38 16q-23 0 -38.5 -16t-15.5 -39z" />
    <glyph glyph-name="uring" unicode="&#x16f;" horiz-adv-x="565" 
d="M241 -12q-67 0 -112 36t-58 94q-8 32 -8 117v306h94v-306q0 -85 23 -122.5t88 -37.5q134 0 134 175v291h94v-541h-94v82q-26 -43 -67.5 -68.5t-93.5 -25.5zM167 693q0 48 34 81t81 33t81 -33t34 -81t-34 -81t-81 -33t-81 33t-34 81zM228 693q0 -23 15.5 -39t38.5 -16
t38.5 16t15.5 39t-16 39t-38 16q-23 0 -38.5 -16t-15.5 -39z" />
    <glyph glyph-name="Uhungarumlaut" unicode="&#x170;" horiz-adv-x="678" 
d="M518 720h93v-462q0 -127 -71 -198.5t-201 -71.5q-124 0 -198 73t-74 201v458h99v-453q0 -90 47.5 -137t129.5 -47q84 0 129.5 45.5t45.5 131.5v460zM226 757l56 121h108l-100 -121h-64zM368 757l55 121h109l-100 -121h-64z" />
    <glyph glyph-name="uhungarumlaut" unicode="&#x171;" horiz-adv-x="565" 
d="M241 -12q-67 0 -112 36t-58 94q-8 32 -8 117v306h94v-306q0 -85 23 -122.5t88 -37.5q134 0 134 175v291h94v-541h-94v82q-26 -43 -67.5 -68.5t-93.5 -25.5zM167 584l60 136h104l-100 -136h-64zM313 584l60 136h104l-100 -136h-64z" />
    <glyph glyph-name="Uogonek" unicode="&#x172;" horiz-adv-x="678" 
d="M518 720h93v-462q0 -119 -63.5 -190t-179.5 -79q-51 -35 -51 -75q0 -38 41 -38q22 0 48 18l19 -33q-30 -42 -83 -42q-40 0 -65 21t-25 54q0 55 64 95q-115 7 -182 79t-67 194v458h99v-453q0 -90 47.5 -137t129.5 -47q84 0 129.5 45.5t45.5 131.5v460z" />
    <glyph glyph-name="uogonek" unicode="&#x173;" horiz-adv-x="565" 
d="M447 0h-45v82q-26 -43 -67.5 -68.5t-93.5 -25.5q-68 0 -112 36t-58 94q-8 34 -8 117v306h94v-306q0 -59 5 -79q16 -81 106 -81q48 0 80 24t44 66q10 34 10 85v291h94v-541q-70 -41 -70 -86q0 -38 42 -38q22 0 47 18l19 -33q-30 -42 -83 -42q-40 0 -65 21t-25 54
q0 63 86 106z" />
    <glyph glyph-name="Wcircumflex" unicode="&#x174;" horiz-adv-x="1031" 
d="M750 154l162 566h105l-216 -720h-111l-173 573l-184 -573h-110l-209 720h108l162 -566l179 566h111zM349 762l119 116h99l118 -116h-88l-80 53l-80 -53h-88z" />
    <glyph glyph-name="wcircumflex" unicode="&#x175;" horiz-adv-x="845" 
d="M736 541h102l-182 -541h-100l-135 406l-143 -406h-103l-168 541h105l119 -404l141 404h105l132 -404zM264 584l109 136h99l108 -136h-82l-76 70l-77 -70h-81z" />
    <glyph glyph-name="Ycircumflex" unicode="&#x176;" horiz-adv-x="621" 
d="M311 402l192 318h110l-256 -418v-302h-99v302l-250 418h112zM143 762l119 116h99l118 -116h-88l-80 53l-80 -53h-88z" />
    <glyph glyph-name="ycircumflex" unicode="&#x177;" horiz-adv-x="550" 
d="M440 541h103l-302 -710h-105l90 198l-219 512h108l164 -396zM120 584l109 136h99l108 -136h-82l-76 70l-77 -70h-81z" />
    <glyph glyph-name="Ydieresis" unicode="&#x178;" horiz-adv-x="621" 
d="M311 402l192 318h110l-256 -418v-302h-99v302l-250 418h112zM176 832q0 24 14.5 38.5t37.5 14.5q24 0 38.5 -14.5t14.5 -38.5q0 -23 -14.5 -37.5t-38.5 -14.5q-23 0 -37.5 14.5t-14.5 37.5zM341 832q0 24 14.5 38.5t37.5 14.5q24 0 38.5 -14.5t14.5 -38.5
q0 -23 -14.5 -37.5t-38.5 -14.5q-23 0 -37.5 14.5t-14.5 37.5z" />
    <glyph glyph-name="Zacute" unicode="&#x179;" horiz-adv-x="650" 
d="M60 629v91h541v-88l-432 -541h452v-91h-588v79l441 550h-414zM285 763l50 115h121l-100 -115h-71z" />
    <glyph glyph-name="zacute" unicode="&#x17a;" horiz-adv-x="522" 
d="M47 457v84h435v-72l-320 -385h335v-84h-471v65l324 392h-303zM217 584l60 136h111l-100 -136h-71z" />
    <glyph glyph-name="Zdotaccent" unicode="&#x17b;" horiz-adv-x="650" 
d="M60 629v91h541v-88l-432 -541h452v-91h-588v79l441 550h-414zM274 826q0 26 16 41.5t41 15.5t41 -15.5t16 -41.5t-16 -41.5t-41 -15.5t-41 15.5t-16 41.5z" />
    <glyph glyph-name="zdotaccent" unicode="&#x17c;" horiz-adv-x="522" 
d="M47 457v84h435v-72l-320 -385h335v-84h-471v65l324 392h-303zM203 673q0 25 15.5 41t41.5 16t41.5 -16t15.5 -41t-15.5 -41t-41.5 -16t-41.5 16t-15.5 41z" />
    <glyph glyph-name="Zcaron" unicode="&#x17d;" horiz-adv-x="650" 
d="M60 629v91h541v-88l-432 -541h452v-91h-588v79l441 550h-414zM282 762l-119 116h88l80 -53l80 53h88l-118 -116h-99z" />
    <glyph glyph-name="zcaron" unicode="&#x17e;" horiz-adv-x="522" 
d="M47 457v84h435v-72l-320 -385h335v-84h-471v65l324 392h-303zM211 584l-109 136h81l77 -70l76 70h82l-108 -136h-99z" />
    <glyph glyph-name="Schwa" unicode="&#x18f;" horiz-adv-x="768" 
d="M616 297h-470q12 -98 75 -156t163 -58q88 0 152.5 60.5t79.5 153.5zM44 388h575q-8 110 -74.5 179.5t-170.5 69.5q-144 0 -211 -136l-101 20q36 95 118 153t192 58q158 0 256.5 -103t98.5 -269q0 -165 -102 -268.5t-241 -103.5q-155 0 -249.5 101t-94.5 249q0 26 4 50z
" />
    <glyph glyph-name="florin" unicode="&#x192;" horiz-adv-x="414" 
d="M276 580l-8 -39h103l-18 -84h-103l-129 -611l-98 -15l133 626h-103l18 84h103l12 54q13 62 54 99.5t105 37.5q42 0 73 -12l-18 -83q-25 7 -50 7q-61 0 -74 -64z" />
    <glyph glyph-name="DZcaron" unicode="&#x1c4;" horiz-adv-x="1336" 
d="M73 0v720h209q163 0 262.5 -98t99.5 -262q0 -157 -101.5 -258.5t-266.5 -101.5h-203zM172 629v-538h98q125 0 198 74.5t73 194.5q0 123 -71.5 196t-191.5 73h-106zM745 629v91h541v-88l-432 -541h452v-91h-588v79l441 550h-414zM967 762l-119 116h88l80 -53l80 53h88
l-118 -116h-99z" />
    <glyph glyph-name="Dzcaron" unicode="&#x1c5;" horiz-adv-x="1207" 
d="M73 0v720h209q163 0 262.5 -98t99.5 -262q0 -157 -101.5 -258.5t-266.5 -101.5h-203zM172 629v-538h98q125 0 198 74.5t73 194.5q0 123 -71.5 196t-191.5 73h-106zM732 457v84h435v-72l-320 -385h335v-84h-471v65l324 392h-303zM897 584l-109 136h81l77 -70l76 70h82
l-108 -136h-99z" />
    <glyph glyph-name="dzcaron" unicode="&#x1c6;" horiz-adv-x="1165" 
d="M138 270q0 -86 47.5 -141t123.5 -55q77 0 125.5 53.5t48.5 142.5q0 91 -48.5 144t-125.5 53q-76 0 -123.5 -55.5t-47.5 -141.5zM39 270q0 125 74.5 204t180.5 79q117 0 186 -103v270h94v-720h-94v88q-66 -100 -189 -100q-107 0 -179.5 79.5t-72.5 202.5zM690 457v84h435
v-72l-320 -385h335v-84h-471v65l324 392h-303zM854 584l-109 136h81l77 -70l76 70h82l-108 -136h-99z" />
    <glyph glyph-name="LJ" unicode="&#x1c7;" horiz-adv-x="915" 
d="M73 0v720h99v-629h299v-91h-398zM636 82q55 0 85 31.5t30 93.5v513h99v-528q0 -95 -55.5 -149.5t-150.5 -54.5q-54 0 -91 11l7 93q38 -10 76 -10z" />
    <glyph glyph-name="Lj" unicode="&#x1c8;" horiz-adv-x="732" 
d="M73 0v720h99v-629h299v-91h-398zM663 541v-690l-94 -20v710h94zM559 673q0 25 15.5 41t41.5 16t41.5 -16t15.5 -41t-15.5 -41t-41.5 -16t-41.5 16t-15.5 41z" />
    <glyph glyph-name="lj" unicode="&#x1c9;" horiz-adv-x="464" 
d="M163 720v-720h-94v720h94zM395 541v-690l-94 -20v710h94zM291 673q0 25 15.5 41t41.5 16t41.5 -16t15.5 -41t-15.5 -41t-41.5 -16t-41.5 16t-15.5 41z" />
    <glyph glyph-name="NJ" unicode="&#x1ca;" horiz-adv-x="1107" 
d="M828 82q114 0 114 125v513h99v-528q0 -95 -55 -149.5t-150 -54.5q-54 0 -91 11l6 93q40 -10 77 -10zM540 0l-374 552v-552h-93v720h100l378 -557v557h93v-720h-104z" />
    <glyph glyph-name="Nj" unicode="&#x1cb;" horiz-adv-x="949" 
d="M540 0l-374 552v-552h-93v720h100l378 -557v557h93v-720h-104zM880 541v-690l-94 -20v710h94zM776 673q0 25 16 41t41 16t41 -16t16 -41t-16 -41t-41 -16t-41 16t-16 41z" />
    <glyph glyph-name="nj" unicode="&#x1cc;" horiz-adv-x="797" 
d="M326 553q66 0 110 -35t58 -92q8 -34 8 -108v-318h-94v300q0 86 -24 125.5t-88 39.5q-69 0 -101 -43.5t-32 -130.5v-291h-94v541h94v-83q57 95 163 95zM728 541v-690l-94 -20v710h94zM624 673q0 25 16 41t41 16t41 -16t16 -41t-16 -41t-41 -16t-41 16t-16 41z" />
    <glyph glyph-name="Oogonek" unicode="&#x1ea;" horiz-adv-x="812" 
d="M41 360q0 161 105 266.5t260 105.5t260 -105.5t105 -266.5q0 -147 -96 -253.5t-239 -117.5q-52 -36 -52 -75q0 -37 42 -37q24 0 47 17l19 -32q-31 -43 -83 -43q-40 0 -65 21.5t-25 53.5q0 57 65 95q-148 8 -245.5 112t-97.5 259zM145 360q0 -118 75 -197.5t186 -79.5
q109 0 185 81.5t76 195.5q0 118 -75 197.5t-186 79.5t-186 -79t-75 -198z" />
    <glyph glyph-name="oogonek" unicode="&#x1eb;" horiz-adv-x="638" 
d="M39 270q0 122 80.5 202.5t198.5 80.5q119 0 199.5 -80.5t80.5 -202.5q0 -108 -70 -187.5t-175 -91.5q-53 -37 -53 -77q0 -37 41 -37q23 0 48 17l19 -32q-31 -43 -83 -43q-40 0 -65 21.5t-25 53.5q0 55 64 95q-111 7 -185.5 85.5t-74.5 195.5zM136 270q0 -84 52.5 -139
t130.5 -55q77 0 129.5 57t52.5 137q0 84 -52 139.5t-130 55.5t-130.5 -55.5t-52.5 -139.5z" />
    <glyph glyph-name="DZ" unicode="&#x1f1;" horiz-adv-x="1336" 
d="M73 0v720h209q163 0 262.5 -98t99.5 -262q0 -157 -101.5 -258.5t-266.5 -101.5h-203zM172 629v-538h98q125 0 198 74.5t73 194.5q0 123 -71.5 196t-191.5 73h-106zM745 629v91h541v-88l-432 -541h452v-91h-588v79l441 550h-414z" />
    <glyph glyph-name="Dz" unicode="&#x1f2;" horiz-adv-x="1207" 
d="M73 0v720h209q163 0 262.5 -98t99.5 -262q0 -157 -101.5 -258.5t-266.5 -101.5h-203zM172 629v-538h98q125 0 198 74.5t73 194.5q0 123 -71.5 196t-191.5 73h-106zM732 457v84h435v-72l-320 -385h335v-84h-471v65l324 392h-303z" />
    <glyph glyph-name="dz" unicode="&#x1f3;" horiz-adv-x="1165" 
d="M138 270q0 -86 47.5 -141t123.5 -55q77 0 125.5 53.5t48.5 142.5q0 91 -48.5 144t-125.5 53q-76 0 -123.5 -55.5t-47.5 -141.5zM39 270q0 125 74.5 204t180.5 79q117 0 186 -103v270h94v-720h-94v88q-66 -100 -189 -100q-107 0 -179.5 79.5t-72.5 202.5zM690 457v84h435
v-72l-320 -385h335v-84h-471v65l324 392h-303z" />
    <glyph glyph-name="Gacute" unicode="&#x1f4;" horiz-adv-x="789" 
d="M406 732q199 0 300 -166l-85 -54q-80 125 -215 125q-111 0 -185.5 -79t-74.5 -198t75.5 -198t191.5 -79q95 0 157 55t70 145h-273v90h367v-373h-90v109q-36 -58 -98 -89.5t-141 -31.5q-154 0 -259 106t-105 266t105.5 266t259.5 106zM370 763l50 115h121l-100 -115h-71z
" />
    <glyph glyph-name="gacute" unicode="&#x1f5;" horiz-adv-x="629" 
d="M560 541v-469q0 -118 -66.5 -185t-188.5 -67q-107 0 -168.5 46.5t-77.5 117.5l94 13q34 -92 152 -92q79 0 120 43.5t41 125.5v40q-61 -96 -177 -96q-106 0 -176.5 75.5t-70.5 191.5q0 118 72 193t174 75q114 0 178 -99v87h94zM141 285q0 -80 45.5 -131t118.5 -51
t119 49.5t46 132.5q0 84 -45.5 133t-119.5 49q-73 0 -118.5 -51.5t-45.5 -130.5zM259 584l60 136h111l-100 -136h-71z" />
    <glyph glyph-name="Aringacute" unicode="&#x1fa;" horiz-adv-x="694" 
d="M236 764q0 48 34 81t81 33t81 -33t34 -81q0 -57 -47 -91l264 -673h-108l-69 177h-320l-71 -177h-104l273 672q-48 31 -48 92zM349 585l-128 -318h250zM297 764q0 -23 15.5 -39t38.5 -16t38.5 16t15.5 39t-16 39t-38 16q-23 0 -38.5 -16t-15.5 -39zM305 903l50 115h121
l-100 -115h-71z" />
    <glyph glyph-name="aringacute" unicode="&#x1fb;" horiz-adv-x="530" 
d="M369 239v28q-17 -12 -63 -24l-89 -24q-87 -23 -87 -85q0 -30 22.5 -48t61.5 -18q62 0 108.5 44.5t46.5 126.5zM267 553q62 0 107.5 -23t66.5 -64q22 -40 22 -115v-247q0 -33 27 -33q6 0 20 2v-80q-18 -5 -37 -5q-92 0 -102 88l-2 16q-60 -104 -169 -104q-74 0 -118.5 39
t-44.5 103q0 62 40 100t124 57l110 25q32 7 45 20t13 41q0 45 -28 69.5t-77 24.5q-102 0 -118 -92l-92 9q9 72 66.5 120.5t146.5 48.5zM150 693q0 48 34 81t81 33t81 -33t34 -81t-34 -81t-81 -33t-81 33t-34 81zM211 693q0 -23 15.5 -39t38.5 -16t38.5 16t15.5 39t-16 39
t-38 16q-23 0 -38.5 -16t-15.5 -39zM219 829l56 125h115l-100 -125h-71z" />
    <glyph glyph-name="AEacute" unicode="&#x1fc;" horiz-adv-x="979" 
d="M514 0v177h-274l-112 -177h-117l466 720h446v-91h-310v-208h301v-91h-301v-239h319v-91h-418zM514 610l-217 -343h217v343zM506 763l50 115h121l-100 -115h-71z" />
    <glyph glyph-name="aeacute" unicode="&#x1fd;" horiz-adv-x="927" 
d="M200 -12q-74 0 -118.5 39t-44.5 103q0 62 40 100t124 57l110 25q32 7 45 20t13 41q0 45 -28 69.5t-77 24.5q-102 0 -118 -92l-92 9q9 72 66.5 120.5t146.5 48.5q126 0 173 -87q79 87 193 87q115 0 185 -77.5t70 -189.5q0 -22 -3 -42h-421q5 -76 53 -122.5t124 -46.5
q103 0 139 92l92 -15q-22 -75 -83.5 -119.5t-147.5 -44.5q-79 0 -140.5 34t-96.5 96q-61 -130 -204 -130zM466 319h326q-9 68 -51 107.5t-108 39.5q-65 0 -110 -41.5t-57 -105.5zM369 239v28q-17 -12 -63 -24l-89 -24q-87 -23 -87 -85q0 -30 22.5 -48t61.5 -18
q62 0 108.5 44.5t46.5 126.5zM408 584l60 136h111l-100 -136h-71z" />
    <glyph glyph-name="Oslashacute" unicode="&#x1fe;" horiz-adv-x="806" 
d="M10 13l108 108q-80 99 -80 239q0 161 104.5 266.5t259.5 105.5q139 0 239 -87l109 108l46 -46l-109 -109q80 -101 80 -238q0 -155 -105.5 -263.5t-259.5 -108.5q-137 0 -239 86l-107 -107zM142 360q0 -93 49 -166l380 380q-73 63 -169 63q-111 0 -185.5 -79t-74.5 -198z
M663 360q0 90 -49 165l-380 -379q71 -63 168 -63q110 0 185.5 81.5t75.5 195.5zM358 763l50 115h121l-100 -115h-71z" />
    <glyph glyph-name="oslashacute" unicode="&#x1ff;" horiz-adv-x="664" 
d="M286 584l60 136h111l-100 -136h-71zM25 10l84 85q-57 74 -57 175q0 122 80.5 202.5t198.5 80.5q102 0 177 -61l85 86l46 -46l-86 -86q58 -76 58 -176q0 -117 -81 -199.5t-199 -82.5q-100 0 -176 60l-84 -84zM149 270q0 -59 29 -107l264 264q-48 38 -110 38
q-78 0 -130.5 -55.5t-52.5 -139.5zM514 270q0 60 -29 108l-265 -265q48 -37 112 -37q77 0 129.5 57t52.5 137z" />
    <glyph glyph-name="Adblgrave" unicode="&#x200;" horiz-adv-x="694" 
d="M575 0l-68 177h-321l-70 -177h-105l292 720h99l281 -720h-108zM350 582l-130 -315h253zM266 878l55 -121h-64l-100 121h109zM407 878l56 -121h-64l-100 121h108z" />
    <glyph glyph-name="adblgrave" unicode="&#x201;" horiz-adv-x="530" 
d="M369 239v28q-17 -12 -63 -24l-89 -24q-87 -23 -87 -85q0 -30 22.5 -48t61.5 -18q62 0 108.5 44.5t46.5 126.5zM267 553q126 0 174 -87q22 -40 22 -115v-247q0 -33 27 -33q6 0 20 2v-80q-18 -5 -37 -5q-92 0 -102 88l-2 16q-60 -104 -169 -104q-74 0 -118.5 39t-44.5 103
q0 62 40 100t124 57l110 25q32 7 45 20t13 41q0 45 -28 69.5t-77 24.5q-102 0 -118 -92l-92 9q9 72 66.5 120.5t146.5 48.5zM172 720l61 -136h-64l-100 136h103zM318 720l61 -136h-64l-100 136h103z" />
    <glyph glyph-name="Ainvbreve" unicode="&#x202;" horiz-adv-x="694" 
d="M575 0l-68 177h-321l-70 -177h-105l292 720h99l281 -720h-108zM350 582l-130 -315h253zM486 756h-55q-20 50 -81 50t-81 -50h-55q4 54 40.5 88t95.5 34t96.5 -34t39.5 -88z" />
    <glyph glyph-name="ainvbreve" unicode="&#x203;" horiz-adv-x="530" 
d="M369 239v28q-17 -12 -63 -24l-89 -24q-87 -23 -87 -85q0 -30 22.5 -48t61.5 -18q62 0 108.5 44.5t46.5 126.5zM267 553q126 0 174 -87q22 -40 22 -115v-247q0 -33 27 -33q6 0 20 2v-80q-18 -5 -37 -5q-92 0 -102 88l-2 16q-60 -104 -169 -104q-74 0 -118.5 39t-44.5 103
q0 62 40 100t124 57l110 25q32 7 45 20t13 41q0 45 -28 69.5t-77 24.5q-102 0 -118 -92l-92 9q9 72 66.5 120.5t146.5 48.5zM399 584h-57q-6 29 -26.5 46.5t-52.5 17.5q-64 0 -80 -64h-56q2 60 39 98t97 38t98 -38t38 -98z" />
    <glyph glyph-name="Edblgrave" unicode="&#x204;" horiz-adv-x="538" 
d="M73 0v720h409v-91h-310v-208h301v-91h-301v-239h319v-91h-418zM200 878l55 -121h-64l-100 121h109zM341 878l56 -121h-64l-100 121h108z" />
    <glyph glyph-name="edblgrave" unicode="&#x205;" horiz-adv-x="600" 
d="M139 319h326q-9 68 -51 107.5t-108 39.5q-65 0 -110 -41.5t-57 -105.5zM558 244h-421q5 -76 53 -122.5t124 -46.5q103 0 139 92l92 -15q-22 -75 -83.5 -119.5t-147.5 -44.5q-121 0 -197.5 77t-76.5 205q0 124 78 203.5t188 79.5q115 0 185 -77.5t70 -189.5q0 -22 -3 -42z
M218 720l61 -136h-64l-100 136h103zM364 720l61 -136h-64l-100 136h103z" />
    <glyph glyph-name="Einvbreve" unicode="&#x206;" horiz-adv-x="538" 
d="M73 0v720h409v-91h-310v-208h301v-91h-301v-239h319v-91h-418zM420 756h-55q-20 50 -81 50t-81 -50h-55q4 54 40.5 88t95.5 34t96.5 -34t39.5 -88z" />
    <glyph glyph-name="einvbreve" unicode="&#x207;" horiz-adv-x="600" 
d="M139 319h326q-9 68 -51 107.5t-108 39.5q-65 0 -110 -41.5t-57 -105.5zM558 244h-421q5 -76 53 -122.5t124 -46.5q103 0 139 92l92 -15q-22 -75 -83.5 -119.5t-147.5 -44.5q-121 0 -197.5 77t-76.5 205q0 124 78 203.5t188 79.5q115 0 185 -77.5t70 -189.5q0 -22 -3 -42z
M445 584h-57q-6 29 -26.5 46.5t-52.5 17.5q-64 0 -80 -64h-56q2 60 39 98t97 38t98 -38t38 -98z" />
    <glyph glyph-name="Idblgrave" unicode="&#x208;" horiz-adv-x="245" 
d="M172 720v-720h-99v720h99zM39 878l55 -121h-64l-100 121h109zM180 878l56 -121h-64l-100 121h108z" />
    <glyph glyph-name="idblgrave" unicode="&#x209;" horiz-adv-x="232" 
d="M26 720l61 -136h-64l-100 136h103zM172 720l61 -136h-64l-100 136h103zM163 541v-541h-94v541h94z" />
    <glyph glyph-name="Iinvbreve" unicode="&#x20a;" horiz-adv-x="245" 
d="M172 720v-720h-99v720h99zM259 756h-55q-20 50 -81 50t-81 -50h-55q4 54 40.5 88t95.5 34t96.5 -34t39.5 -88z" />
    <glyph glyph-name="iinvbreve" unicode="&#x20b;" horiz-adv-x="232" 
d="M163 541v-541h-94v541h94zM252 584h-57q-6 29 -26.5 46.5t-52.5 17.5q-64 0 -80 -64h-56q2 60 39 98t97 38t98 -38t38 -98z" />
    <glyph glyph-name="Odblgrave" unicode="&#x20c;" horiz-adv-x="812" 
d="M145 360q0 -118 75 -197.5t186 -79.5q109 0 185 81.5t76 195.5q0 118 -75 197.5t-186 79.5t-186 -79t-75 -198zM41 360q0 161 105 266.5t260 105.5t260 -105.5t105 -266.5q0 -155 -106 -263.5t-259 -108.5q-155 0 -260 105.5t-105 266.5zM322 878l55 -121h-64l-100 121
h109zM463 878l56 -121h-64l-100 121h108z" />
    <glyph glyph-name="odblgrave" unicode="&#x20d;" horiz-adv-x="638" 
d="M39 270q0 122 80.5 202.5t198.5 80.5q119 0 199.5 -80.5t80.5 -202.5q0 -117 -81 -199.5t-199 -82.5t-198.5 80.5t-80.5 201.5zM136 270q0 -84 52.5 -139t130.5 -55q77 0 129.5 57t52.5 137q0 84 -52 139.5t-130 55.5t-130.5 -55.5t-52.5 -139.5zM228 720l61 -136h-64
l-100 136h103zM374 720l61 -136h-64l-100 136h103z" />
    <glyph glyph-name="Oinvbreve" unicode="&#x20e;" horiz-adv-x="812" 
d="M145 360q0 -118 75 -197.5t186 -79.5q109 0 185 81.5t76 195.5q0 118 -75 197.5t-186 79.5t-186 -79t-75 -198zM41 360q0 161 105 266.5t260 105.5t260 -105.5t105 -266.5q0 -155 -106 -263.5t-259 -108.5q-155 0 -260 105.5t-105 266.5zM542 756h-55q-20 50 -81 50
t-81 -50h-55q4 54 40.5 88t95.5 34t96.5 -34t39.5 -88z" />
    <glyph glyph-name="oinvbreve" unicode="&#x20f;" horiz-adv-x="638" 
d="M39 270q0 122 80.5 202.5t198.5 80.5q119 0 199.5 -80.5t80.5 -202.5q0 -117 -81 -199.5t-199 -82.5t-198.5 80.5t-80.5 201.5zM136 270q0 -84 52.5 -139t130.5 -55q77 0 129.5 57t52.5 137q0 84 -52 139.5t-130 55.5t-130.5 -55.5t-52.5 -139.5zM454 584h-57
q-6 29 -26.5 46.5t-52.5 17.5q-64 0 -80 -64h-56q2 60 39 98t97 38t98 -38t38 -98z" />
    <glyph glyph-name="Rdblgrave" unicode="&#x210;" horiz-adv-x="605" 
d="M308 312h-136v-312h-99v720h255q107 0 166.5 -56.5t59.5 -147.5q0 -138 -146 -187l169 -329h-115zM324 629h-152v-226h145q64 0 98.5 30.5t34.5 82.5q0 53 -32.5 83t-93.5 30zM200 878l55 -121h-64l-100 121h109zM341 878l56 -121h-64l-100 121h108z" />
    <glyph glyph-name="rdblgrave" unicode="&#x211;" horiz-adv-x="365" 
d="M351 551v-98q-19 3 -42 3q-111 0 -138 -114q-8 -34 -8 -99v-243h-94v541h94v-105q22 55 62.5 86t93.5 31q21 0 32 -2zM111 720l61 -136h-64l-100 136h103zM257 720l61 -136h-64l-100 136h103z" />
    <glyph glyph-name="Rinvbreve" unicode="&#x212;" horiz-adv-x="605" 
d="M308 312h-136v-312h-99v720h255q107 0 166.5 -56.5t59.5 -147.5q0 -138 -146 -187l169 -329h-115zM324 629h-152v-226h145q64 0 98.5 30.5t34.5 82.5q0 53 -32.5 83t-93.5 30zM420 756h-55q-20 50 -81 50t-81 -50h-55q4 54 40.5 88t95.5 34t96.5 -34t39.5 -88z" />
    <glyph glyph-name="rinvbreve" unicode="&#x213;" horiz-adv-x="365" 
d="M351 551v-98q-19 3 -42 3q-111 0 -138 -114q-8 -34 -8 -99v-243h-94v541h94v-105q22 55 62.5 86t93.5 31q21 0 32 -2zM339 584h-57q-6 29 -26.5 46.5t-52.5 17.5q-64 0 -80 -64h-56q2 60 39 98t97 38t98 -38t38 -98z" />
    <glyph glyph-name="Udblgrave" unicode="&#x214;" horiz-adv-x="678" 
d="M518 720h93v-462q0 -127 -71 -198.5t-201 -71.5q-124 0 -198 73t-74 201v458h99v-453q0 -90 47.5 -137t129.5 -47q84 0 129.5 45.5t45.5 131.5v460zM261 878l55 -121h-64l-100 121h109zM402 878l56 -121h-64l-100 121h108z" />
    <glyph glyph-name="udblgrave" unicode="&#x215;" horiz-adv-x="565" 
d="M241 -12q-67 0 -112 36t-58 94q-8 32 -8 117v306h94v-306q0 -85 23 -122.5t88 -37.5q134 0 134 175v291h94v-541h-94v82q-26 -43 -67.5 -68.5t-93.5 -25.5zM192 720l61 -136h-64l-100 136h103zM338 720l61 -136h-64l-100 136h103z" />
    <glyph glyph-name="Uinvbreve" unicode="&#x216;" horiz-adv-x="678" 
d="M518 720h93v-462q0 -127 -71 -198.5t-201 -71.5q-124 0 -198 73t-74 201v458h99v-453q0 -90 47.5 -137t129.5 -47q84 0 129.5 45.5t45.5 131.5v460zM481 756h-55q-20 50 -81 50t-81 -50h-55q4 54 40.5 88t95.5 34t96.5 -34t39.5 -88z" />
    <glyph glyph-name="uinvbreve" unicode="&#x217;" horiz-adv-x="565" 
d="M241 -12q-67 0 -112 36t-58 94q-8 32 -8 117v306h94v-306q0 -85 23 -122.5t88 -37.5q134 0 134 175v291h94v-541h-94v82q-26 -43 -67.5 -68.5t-93.5 -25.5zM418 584h-57q-6 29 -26.5 46.5t-52.5 17.5q-64 0 -80 -64h-56q2 60 39 98t97 38t98 -38t38 -98z" />
    <glyph glyph-name="Scommaaccent" unicode="&#x218;" horiz-adv-x="581" 
d="M252 443l148 -58q76 -30 114 -77.5t38 -122.5q0 -84 -63 -140.5t-175 -56.5q-114 0 -183 53t-96 143l91 39q46 -140 185 -140q64 0 101 26.5t37 74.5q0 42 -22.5 68.5t-78.5 47.5l-136 53q-146 55 -146 182q0 83 63 140t159 57q159 0 232 -151l-84 -45q-58 101 -146 101
q-55 0 -88.5 -28t-33.5 -70q0 -34 20 -56.5t64 -39.5zM264 -191l2 156h97l-49 -156h-50z" />
    <glyph glyph-name="scommaaccent" unicode="&#x219;" horiz-adv-x="443" 
d="M239 74q41 0 63 17.5t22 46.5q0 43 -61 71l-99 46q-112 52 -112 148q0 60 47 105t120 45q106 0 171 -93l-69 -57q-47 64 -103 64q-34 0 -55 -17.5t-21 -43.5q0 -40 51 -63l111 -51q112 -52 112 -153q0 -68 -49.5 -109.5t-128.5 -41.5q-153 0 -209 127l77 50
q44 -91 133 -91zM185 -191l2 156h97l-49 -156h-50z" />
    <glyph glyph-name="Tcomma" unicode="&#x21a;" horiz-adv-x="604" 
d="M351 629v-629h-99v629h-227v91h554v-91h-228zM252 -191l2 156h97l-49 -156h-50z" />
    <glyph glyph-name="tcomma" unicode="&#x21b;" horiz-adv-x="332" 
d="M316 457h-103v-457h-94v457h-103v84h103v110l94 20v-130h103v-84zM117 -191l2 156h97l-49 -156h-50z" />
    <glyph glyph-name="dotlessj" unicode="&#x237;" horiz-adv-x="232" 
d="M163 541v-690l-94 -20v710h94z" />
    <glyph glyph-name="schwa" unicode="&#x259;" horiz-adv-x="600" 
d="M460 222h-326q10 -68 51.5 -107.5t108.5 -39.5q66 0 110.5 41.5t55.5 105.5zM41 297h422q-5 75 -51.5 122t-120.5 47q-99 0 -145 -93l-91 22q28 72 90.5 115t146.5 43q118 0 192.5 -78t74.5 -204q0 -127 -77 -205t-189 -78q-114 0 -184.5 77t-70.5 189q0 22 3 43z" />
    <glyph glyph-name="hsuperior" unicode="&#x2b0;" horiz-adv-x="439" 
d="M249 597q74 0 104.5 -46.5t30.5 -132.5v-238h-79v226q0 57 -16 86.5t-62 29.5q-93 0 -93 -123v-219h-79v540h79v-182q43 59 115 59z" />
    <glyph glyph-name="jsuperior" unicode="&#x2b2;" horiz-adv-x="189" 
d="M133 588v-517l-79 -18v535h79zM46 680q0 21 13 34t34 13t34 -13t13 -34t-13 -34t-34 -13t-34 13t-13 34z" />
    <glyph glyph-name="wsuperior" unicode="&#x2b7;" horiz-adv-x="651" 
d="M550 588h86l-137 -408h-82l-96 286l-101 -286h-83l-127 408h88l85 -284l99 284h85l94 -284z" />
    <glyph glyph-name="ysuperior" unicode="&#x2b8;" horiz-adv-x="431" 
d="M331 588h88l-227 -533h-89l68 151l-163 382h92l116 -283z" />
    <glyph glyph-name="apostrophe" unicode="&#x2bc;" horiz-adv-x="235" 
d="M49 486l26 234h109l-80 -234h-55z" />
    <glyph glyph-name="circumflex" unicode="&#x2c6;" horiz-adv-x="500" 
d="M92 584l109 136h99l108 -136h-82l-76 70l-77 -70h-81z" />
    <glyph glyph-name="caron" unicode="&#x2c7;" horiz-adv-x="500" 
d="M201 584l-109 136h81l77 -70l76 70h82l-108 -136h-99z" />
    <glyph glyph-name="breve" unicode="&#x2d8;" horiz-adv-x="500" 
d="M329 720h57q0 -60 -38 -98t-98 -38t-97 38t-39 98h56q16 -64 80 -64q65 0 79 64z" />
    <glyph glyph-name="dotaccent" unicode="&#x2d9;" horiz-adv-x="500" 
d="M193 673q0 25 15.5 41t41.5 16t41.5 -16t15.5 -41t-15.5 -41t-41.5 -16t-41.5 16t-15.5 41z" />
    <glyph glyph-name="ring" unicode="&#x2da;" horiz-adv-x="500" 
d="M135 693q0 48 34 81t81 33t81 -33t34 -81t-34 -81t-81 -33t-81 33t-34 81zM196 693q0 -23 15.5 -39t38.5 -16t38.5 16t15.5 39t-16 39t-38 16q-23 0 -38.5 -16t-15.5 -39z" />
    <glyph glyph-name="ogonek" unicode="&#x2db;" horiz-adv-x="500" 
d="M317 -107l20 -31q-31 -43 -83 -43q-40 0 -65.5 21t-25.5 54q0 63 86 106h49q-69 -40 -69 -86q0 -17 11 -27t30 -10q23 0 47 16z" />
    <glyph glyph-name="tilde" unicode="&#x2dc;" horiz-adv-x="500" 
d="M240 624q-39 19 -56 19q-30 0 -33 -40l-58 7q1 51 26.5 79.5t65.5 28.5q29 0 75 -23q39 -20 56 -20q28 0 33 41l58 -7q-1 -51 -26.5 -80t-65.5 -29q-27 0 -75 24z" />
    <glyph glyph-name="hungarumlaut" unicode="&#x2dd;" horiz-adv-x="500" 
d="M95 584l60 136h104l-100 -136h-64zM241 584l60 136h104l-100 -136h-64z" />
    <glyph glyph-name="xsuperior" unicode="&#x2e3;" horiz-adv-x="424" 
d="M303 588h96l-138 -199l148 -209h-100l-104 148l-94 -148h-100l145 214l-138 194h101l94 -135z" />
    <glyph glyph-name="uni0394" unicode="&#x394;" horiz-adv-x="704" 
d="M688 0h-672l292 720h98zM354 585l-198 -494h389z" />
    <glyph glyph-name="uni03A9" unicode="&#x3a9;" horiz-adv-x="719" 
d="M149 418q0 -86 47 -142.5t125 -73.5v-202h-267v91h172v53q-181 80 -181 273q0 136 90.5 225.5t223.5 89.5t224 -89.5t91 -224.5q0 -96 -48.5 -165.5t-134.5 -108.5v-53h172v-91h-267v202q77 16 125.5 74.5t48.5 141.5q0 93 -61.5 156t-149.5 63t-149 -63t-61 -156z" />
    <glyph glyph-name="uni03BC" unicode="&#x3bc;" horiz-adv-x="571" 
d="M69 -169v710h94v-336q0 -71 22.5 -103t83.5 -32q67 0 103 46.5t36 133.5v291h94v-541h-94v82q-26 -43 -67.5 -68.5t-93.5 -25.5q-49 0 -84 23v-180h-94z" />
    <glyph glyph-name="pi" unicode="&#x3c0;" horiz-adv-x="634" 
d="M617 457h-103v-457h-94v457h-206v-457h-94v457h-103v84h600v-84z" />
    <glyph glyph-name="Ddotbelow" unicode="&#x1e0c;" horiz-adv-x="685" 
d="M73 0v720h209q163 0 262.5 -98t99.5 -262q0 -157 -101.5 -258.5t-266.5 -101.5h-203zM172 629v-538h98q125 0 198 74.5t73 194.5q0 123 -71.5 196t-191.5 73h-106zM253 -121q0 25 15.5 41t41.5 16t41.5 -16t15.5 -41t-15.5 -41t-41.5 -16t-41.5 16t-15.5 41z" />
    <glyph glyph-name="ddotbelow" unicode="&#x1e0d;" horiz-adv-x="643" 
d="M138 270q0 -86 47.5 -141t123.5 -55q77 0 125.5 53.5t48.5 142.5q0 91 -48.5 144t-125.5 53q-76 0 -123.5 -55.5t-47.5 -141.5zM39 270q0 125 74.5 204t180.5 79q117 0 186 -103v270h94v-720h-94v88q-66 -100 -189 -100q-107 0 -179.5 79.5t-72.5 202.5zM234 -121
q0 25 16 41t41 16t41 -16t16 -41t-16 -41t-41 -16t-41 16t-16 41z" />
    <glyph glyph-name="Hdotbelow" unicode="&#x1e24;" horiz-adv-x="718" 
d="M546 0v330h-374v-330h-99v720h99v-299h374v299h99v-720h-99zM308 -121q0 25 16 41t41 16t41 -16t16 -41t-16 -41t-41 -16t-41 16t-16 41z" />
    <glyph glyph-name="hdotbelow" unicode="&#x1e25;" horiz-adv-x="565" 
d="M326 553q66 0 110 -35t58 -92q8 -34 8 -108v-318h-94v300q0 84 -24.5 124.5t-87.5 40.5q-69 0 -101 -43.5t-32 -130.5v-291h-94v720h94v-262q57 95 163 95zM229 -121q0 25 15.5 41t41.5 16t41.5 -16t15.5 -41t-15.5 -41t-41.5 -16t-41.5 16t-15.5 41z" />
    <glyph glyph-name="Ndotabove" unicode="&#x1e44;" horiz-adv-x="717" 
d="M540 0l-374 552v-552h-93v720h100l378 -557v557h93v-720h-104zM311 826q0 26 15.5 41.5t41.5 15.5t41.5 -15.5t15.5 -41.5t-15.5 -41.5t-41.5 -15.5t-41.5 15.5t-15.5 41.5z" />
    <glyph glyph-name="ndotabove" unicode="&#x1e45;" horiz-adv-x="565" 
d="M326 553q66 0 110 -35t58 -92q8 -34 8 -108v-318h-94v300q0 86 -24 125.5t-88 39.5q-69 0 -101 -43.5t-32 -130.5v-291h-94v541h94v-83q57 95 163 95zM235 673q0 25 15.5 41t41.5 16t41.5 -16t15.5 -41t-15.5 -41t-41.5 -16t-41.5 16t-15.5 41z" />
    <glyph glyph-name="Rdotbelow" unicode="&#x1e5a;" horiz-adv-x="605" 
d="M308 312h-136v-312h-99v720h255q107 0 166.5 -56.5t59.5 -147.5q0 -138 -146 -187l169 -329h-115zM324 629h-152v-226h145q64 0 98.5 30.5t34.5 82.5q0 53 -32.5 83t-93.5 30zM253 -121q0 25 15.5 41t41.5 16t41.5 -16t15.5 -41t-15.5 -41t-41.5 -16t-41.5 16t-15.5 41z
" />
    <glyph glyph-name="rdotbelow" unicode="&#x1e5b;" horiz-adv-x="365" 
d="M351 551v-98q-19 3 -42 3q-111 0 -138 -114q-8 -34 -8 -99v-243h-94v541h94v-105q22 55 62.5 86t93.5 31q21 0 32 -2zM58 -121q0 25 16 41t41 16t41 -16t16 -41t-16 -41t-41 -16t-41 16t-16 41z" />
    <glyph glyph-name="Sdotbelow" unicode="&#x1e62;" horiz-adv-x="581" 
d="M252 443l148 -58q76 -30 114 -77.5t38 -122.5q0 -84 -63 -140.5t-175 -56.5q-114 0 -183 53t-96 143l91 39q46 -140 185 -140q64 0 101 26.5t37 74.5q0 42 -22.5 68.5t-78.5 47.5l-136 53q-146 55 -146 182q0 83 63 140t159 57q159 0 232 -151l-84 -45q-58 101 -146 101
q-55 0 -88.5 -28t-33.5 -70q0 -34 20 -56.5t64 -39.5zM254 -121q0 25 16 41t41 16t41 -16t16 -41t-16 -41t-41 -16t-41 16t-16 41z" />
    <glyph glyph-name="sdotbelow" unicode="&#x1e63;" horiz-adv-x="443" 
d="M239 74q41 0 63 17.5t22 46.5q0 43 -61 71l-99 46q-112 52 -112 148q0 60 47 105t120 45q106 0 171 -93l-69 -57q-47 64 -103 64q-34 0 -55 -17.5t-21 -43.5q0 -40 51 -63l111 -51q112 -52 112 -153q0 -68 -49.5 -109.5t-128.5 -41.5q-153 0 -209 127l77 50
q44 -91 133 -91zM176 -121q0 25 16 41t41 16t41 -16t16 -41t-16 -41t-41 -16t-41 16t-16 41z" />
    <glyph glyph-name="Tdotbelow" unicode="&#x1e6c;" horiz-adv-x="604" 
d="M351 629v-629h-99v629h-227v91h554v-91h-228zM246 -121q0 25 16 41t41 16t41 -16t16 -41t-16 -41t-41 -16t-41 16t-16 41z" />
    <glyph glyph-name="tdotbelow" unicode="&#x1e6d;" horiz-adv-x="332" 
d="M316 457h-103v-457h-94v457h-103v84h103v110l94 20v-130h103v-84zM108 -121q0 25 16 41t41 16t41 -16t16 -41t-16 -41t-41 -16t-41 16t-16 41z" />
    <glyph glyph-name="Wgrave" unicode="&#x1e80;" horiz-adv-x="1031" 
d="M750 154l162 566h105l-216 -720h-111l-173 573l-184 -573h-110l-209 720h108l162 -566l179 566h111zM513 878l50 -115h-71l-100 115h121z" />
    <glyph glyph-name="wgrave" unicode="&#x1e81;" horiz-adv-x="845" 
d="M736 541h102l-182 -541h-100l-135 406l-143 -406h-103l-168 541h105l119 -404l141 404h105l132 -404zM407 720l60 -136h-71l-100 136h111z" />
    <glyph glyph-name="Wacute" unicode="&#x1e82;" horiz-adv-x="1031" 
d="M750 154l162 566h105l-216 -720h-111l-173 573l-184 -573h-110l-209 720h108l162 -566l179 566h111zM472 763l50 115h121l-100 -115h-71z" />
    <glyph glyph-name="wacute" unicode="&#x1e83;" horiz-adv-x="845" 
d="M736 541h102l-182 -541h-100l-135 406l-143 -406h-103l-168 541h105l119 -404l141 404h105l132 -404zM376 584l60 136h111l-100 -136h-71z" />
    <glyph glyph-name="Wdieresis" unicode="&#x1e84;" horiz-adv-x="1031" 
d="M750 154l162 566h105l-216 -720h-111l-173 573l-184 -573h-110l-209 720h108l162 -566l179 566h111zM382 832q0 24 14.5 38.5t37.5 14.5q24 0 38.5 -14.5t14.5 -38.5q0 -23 -14.5 -37.5t-38.5 -14.5q-23 0 -37.5 14.5t-14.5 37.5zM547 832q0 24 14.5 38.5t37.5 14.5
q24 0 38.5 -14.5t14.5 -38.5q0 -23 -14.5 -37.5t-38.5 -14.5q-23 0 -37.5 14.5t-14.5 37.5z" />
    <glyph glyph-name="wdieresis" unicode="&#x1e85;" horiz-adv-x="845" 
d="M736 541h102l-182 -541h-100l-135 406l-143 -406h-103l-168 541h105l119 -404l141 404h105l132 -404zM287 676q0 23 14.5 37.5t37.5 14.5q24 0 38.5 -14.5t14.5 -37.5q0 -24 -14.5 -38.5t-38.5 -14.5q-23 0 -37.5 14.5t-14.5 38.5zM452 676q0 23 14.5 37.5t37.5 14.5
q24 0 38.5 -14.5t14.5 -37.5q0 -24 -14.5 -38.5t-38.5 -14.5q-23 0 -37.5 14.5t-14.5 38.5z" />
    <glyph glyph-name="Zdotbelow" unicode="&#x1e92;" horiz-adv-x="650" 
d="M60 629v91h541v-88l-432 -541h452v-91h-588v79l441 550h-414zM284 -121q0 25 16 41t41 16t41 -16t16 -41t-16 -41t-41 -16t-41 16t-16 41z" />
    <glyph glyph-name="zdotbelow" unicode="&#x1e93;" horiz-adv-x="522" 
d="M47 457v84h435v-72l-320 -385h335v-84h-471v65l324 392h-303zM213 -121q0 25 15.5 41t41.5 16t41.5 -16t15.5 -41t-15.5 -41t-41.5 -16t-41.5 16t-15.5 41z" />
    <glyph glyph-name="Edotbelow" unicode="&#x1eb8;" horiz-adv-x="538" 
d="M73 0v720h409v-91h-310v-208h301v-91h-301v-239h319v-91h-418zM227 -121q0 25 15.5 41t41.5 16t41.5 -16t15.5 -41t-15.5 -41t-41.5 -16t-41.5 16t-15.5 41z" />
    <glyph glyph-name="edotbelow" unicode="&#x1eb9;" horiz-adv-x="600" 
d="M139 319h326q-9 68 -51 107.5t-108 39.5q-65 0 -110 -41.5t-57 -105.5zM558 244h-421q5 -76 53 -122.5t124 -46.5q103 0 139 92l92 -15q-22 -75 -83.5 -119.5t-147.5 -44.5q-121 0 -197.5 77t-76.5 205q0 124 78 203.5t188 79.5q115 0 185 -77.5t70 -189.5q0 -22 -3 -42z
M256 -121q0 25 16 41t41 16t41 -16t16 -41t-16 -41t-41 -16t-41 16t-16 41z" />
    <glyph glyph-name="Etilde" unicode="&#x1ebc;" horiz-adv-x="538" 
d="M73 0v720h409v-91h-310v-208h301v-91h-301v-239h319v-91h-418zM274 784q-39 19 -56 19q-30 0 -33 -40l-58 7q1 51 26.5 79.5t65.5 28.5q29 0 75 -23q39 -20 56 -20q28 0 33 41l58 -7q-1 -51 -26.5 -80t-65.5 -29q-27 0 -75 24z" />
    <glyph glyph-name="etilde" unicode="&#x1ebd;" horiz-adv-x="600" 
d="M139 319h326q-9 68 -51 107.5t-108 39.5q-65 0 -110 -41.5t-57 -105.5zM558 244h-421q5 -76 53 -122.5t124 -46.5q103 0 139 92l92 -15q-22 -75 -83.5 -119.5t-147.5 -44.5q-121 0 -197.5 77t-76.5 205q0 124 78 203.5t188 79.5q115 0 185 -77.5t70 -189.5q0 -22 -3 -42z
M300 624q-39 19 -56 19q-30 0 -33 -40l-58 7q1 51 26.5 79.5t65.5 28.5q29 0 75 -23q39 -20 56 -20q28 0 33 41l58 -7q-1 -51 -26.5 -80t-65.5 -29q-27 0 -75 24z" />
    <glyph glyph-name="Idotbelow" unicode="&#x1eca;" horiz-adv-x="245" 
d="M172 720v-720h-99v720h99zM66 -121q0 25 16 41t41 16t41 -16t16 -41t-16 -41t-41 -16t-41 16t-16 41z" />
    <glyph glyph-name="idotbelow" unicode="&#x1ecb;" horiz-adv-x="232" 
d="M59 -121q0 25 15.5 41t41.5 16t41.5 -16t15.5 -41t-15.5 -41t-41.5 -16t-41.5 16t-15.5 41zM163 541v-541h-94v541h94zM59 673q0 25 15.5 41t41.5 16t41.5 -16t15.5 -41t-15.5 -41t-41.5 -16t-41.5 16t-15.5 41z" />
    <glyph glyph-name="Odotbelow" unicode="&#x1ecc;" horiz-adv-x="812" 
d="M145 360q0 -118 75 -197.5t186 -79.5q109 0 185 81.5t76 195.5q0 118 -75 197.5t-186 79.5t-186 -79t-75 -198zM41 360q0 161 105 266.5t260 105.5t260 -105.5t105 -266.5q0 -155 -106 -263.5t-259 -108.5q-155 0 -260 105.5t-105 266.5zM349 -121q0 25 15.5 41t41.5 16
t41.5 -16t15.5 -41t-15.5 -41t-41.5 -16t-41.5 16t-15.5 41z" />
    <glyph glyph-name="odotbelow" unicode="&#x1ecd;" horiz-adv-x="638" 
d="M39 270q0 122 80.5 202.5t198.5 80.5q119 0 199.5 -80.5t80.5 -202.5q0 -117 -81 -199.5t-199 -82.5t-198.5 80.5t-80.5 201.5zM136 270q0 -84 52.5 -139t130.5 -55q77 0 129.5 57t52.5 137q0 84 -52 139.5t-130 55.5t-130.5 -55.5t-52.5 -139.5zM262 -121q0 25 16 41
t41 16t41 -16t16 -41t-16 -41t-41 -16t-41 16t-16 41z" />
    <glyph glyph-name="Udotbelow" unicode="&#x1ee4;" horiz-adv-x="678" 
d="M518 720h93v-462q0 -127 -71 -198.5t-201 -71.5q-124 0 -198 73t-74 201v458h99v-453q0 -90 47.5 -137t129.5 -47q84 0 129.5 45.5t45.5 131.5v460zM285 -121q0 25 15.5 41t41.5 16t41.5 -16t15.5 -41t-15.5 -41t-41.5 -16t-41.5 16t-15.5 41z" />
    <glyph glyph-name="udotbelow" unicode="&#x1ee5;" horiz-adv-x="565" 
d="M241 -12q-67 0 -112 36t-58 94q-8 32 -8 117v306h94v-306q0 -85 23 -122.5t88 -37.5q134 0 134 175v291h94v-541h-94v82q-26 -43 -67.5 -68.5t-93.5 -25.5zM188 -121q0 25 16 41t41 16t41 -16t16 -41t-16 -41t-41 -16t-41 16t-16 41z" />
    <glyph glyph-name="Ygrave" unicode="&#x1ef2;" horiz-adv-x="621" 
d="M311 402l192 318h110l-256 -418v-302h-99v302l-250 418h112zM320 888l56 -125h-71l-100 125h115z" />
    <glyph glyph-name="ygrave" unicode="&#x1ef3;" horiz-adv-x="550" 
d="M440 541h103l-302 -710h-105l90 198l-219 512h108l164 -396zM264 720l60 -136h-71l-100 136h111z" />
    <glyph glyph-name="Ytilde" unicode="&#x1ef8;" horiz-adv-x="621" 
d="M311 402l192 318h110l-256 -418v-302h-99v302l-250 418h112zM301 784q-39 19 -56 19q-30 0 -33 -40l-58 7q1 51 26.5 79.5t65.5 28.5q29 0 75 -23q39 -20 56 -20q28 0 33 41l58 -7q-1 -51 -26.5 -80t-65.5 -29q-27 0 -75 24z" />
    <glyph glyph-name="ytilde" unicode="&#x1ef9;" horiz-adv-x="550" 
d="M440 541h103l-302 -710h-105l90 198l-219 512h108l164 -396zM269 624q-39 19 -56 19q-30 0 -33 -40l-58 7q1 51 26.5 79.5t65.5 28.5q29 0 75 -23q39 -20 56 -20q28 0 33 41l58 -7q-1 -51 -26.5 -80t-65.5 -29q-27 0 -75 24z" />
    <glyph glyph-name="endash" unicode="&#x2013;" horiz-adv-x="500" 
d="M0 235v72h500v-72h-500z" />
    <glyph glyph-name="emdash" unicode="&#x2014;" horiz-adv-x="1000" 
d="M0 235v72h1000v-72h-1000z" />
    <glyph glyph-name="quoteleft" unicode="&#x2018;" horiz-adv-x="235" 
d="M185 720l-25 -234h-110l80 234h55z" />
    <glyph glyph-name="quoteright" unicode="&#x2019;" horiz-adv-x="235" 
d="M49 486l26 234h109l-80 -234h-55z" />
    <glyph glyph-name="quotesinglbase" unicode="&#x201a;" horiz-adv-x="235" 
d="M49 -151l26 253h109l-80 -253h-55z" />
    <glyph glyph-name="quotereversed" unicode="&#x201b;" horiz-adv-x="235" 
d="M159 720l26 -234h-55l-80 234h109z" />
    <glyph glyph-name="quotedblleft" unicode="&#x201c;" horiz-adv-x="396" 
d="M346 720l-25 -234h-110l80 234h55zM185 720l-25 -234h-110l80 234h55z" />
    <glyph glyph-name="quotedblright" unicode="&#x201d;" horiz-adv-x="396" 
d="M49 486l26 234h109l-80 -234h-55zM210 486l26 234h109l-80 -234h-55z" />
    <glyph glyph-name="quotedblbase" unicode="&#x201e;" horiz-adv-x="396" 
d="M49 -151l26 253h109l-80 -253h-55zM210 -151l26 253h109l-80 -253h-55z" />
    <glyph glyph-name="dagger" unicode="&#x2020;" horiz-adv-x="398" 
d="M370 461h-130v-630h-82v630h-130v80h130v179h82v-179h130v-80z" />
    <glyph glyph-name="daggerdbl" unicode="&#x2021;" horiz-adv-x="398" 
d="M240 80h130v-80h-130v-169h-82v169h-130v80h130v381h-130v80h130v179h82v-179h130v-80h-130v-381z" />
    <glyph glyph-name="bullet" unicode="&#x2022;" horiz-adv-x="500" 
d="M81 376q0 77 48 128t121 51t121 -51t48 -128q0 -74 -48.5 -126t-120.5 -52q-73 0 -121 50.5t-48 127.5z" />
    <glyph glyph-name="ellipsis" unicode="&#x2026;" horiz-adv-x="705" 
d="M55 50q0 28 17 45.5t45 17.5q29 0 46 -17.5t17 -45.5t-17.5 -45t-45.5 -17t-45 17t-17 45zM290 50q0 28 17 45.5t45 17.5t45.5 -17.5t17.5 -45.5t-17.5 -45t-45.5 -17t-45 17t-17 45zM525 50q0 28 17 45.5t45 17.5q29 0 46 -17.5t17 -45.5t-17.5 -45t-45.5 -17t-45 17
t-17 45z" />
    <glyph glyph-name="perthousand" unicode="&#x2030;" horiz-adv-x="1351" 
d="M41 539q0 84 54.5 138.5t135.5 54.5t135.5 -55t54.5 -138q0 -79 -55 -135t-135 -56q-81 0 -135.5 54t-54.5 137zM120 539q0 -50 32 -83.5t79 -33.5q46 0 78 34.5t32 82.5q0 51 -31.5 84.5t-78.5 33.5t-79 -33.5t-32 -84.5zM577 720h85l-298 -720h-85zM523 179
q0 84 54.5 138.5t135.5 54.5t135.5 -55t54.5 -138q0 -79 -55 -135t-135 -56q-81 0 -135.5 54t-54.5 137zM602 179q0 -50 32 -83.5t79 -33.5q46 0 78 34.5t32 82.5q0 51 -31.5 84.5t-78.5 33.5t-79 -33.5t-32 -84.5zM930 179q0 84 54.5 138.5t135.5 54.5t135.5 -55t54.5 -138
q0 -79 -55 -135t-135 -56q-81 0 -135.5 54t-54.5 137zM1009 179q0 -50 32 -83.5t79 -33.5q46 0 78 34.5t32 82.5q0 51 -31.5 84.5t-78.5 33.5t-79 -33.5t-32 -84.5z" />
    <glyph glyph-name="guilsinglleft" unicode="&#x2039;" horiz-adv-x="282" 
d="M35 315l204 173v-106l-131 -111l131 -111v-106l-204 173v88z" />
    <glyph glyph-name="guilsinglright" unicode="&#x203a;" horiz-adv-x="282" 
d="M43 488l204 -173v-88l-204 -173v106l131 111l-131 111v106z" />
    <glyph glyph-name="fraction" unicode="&#x2044;" horiz-adv-x="302" 
d="M257 720h86l-298 -720h-86z" />
    <glyph glyph-name="zerosuperior" unicode="&#x2070;" horiz-adv-x="447" 
d="M326 450q0 100 -28.5 151t-76.5 51t-76 -51.5t-28 -150.5q0 -100 28 -151.5t76 -51.5t76.5 51.5t28.5 151.5zM409 450q0 -161 -74 -233q-46 -46 -114 -46q-66 0 -114 46q-73 70 -73 233q0 158 73 231q48 48 114 48q69 0 115 -48q73 -73 73 -231z" />
    <glyph glyph-name="foursuperior" unicode="&#x2074;" horiz-adv-x="434" 
d="M265 603l-156 -217h156v217zM408 386v-73h-62v-133h-81v133h-239v77l239 330h81v-334h62z" />
    <glyph glyph-name="fivesuperior" unicode="&#x2075;" horiz-adv-x="418" 
d="M225 537q67 0 115.5 -51t48.5 -130q0 -80 -52 -132.5t-132 -52.5q-63 0 -108.5 34t-66.5 92l68 35q36 -85 107 -85q46 0 74 30.5t28 77.5q0 49 -29 78t-74 29q-52 0 -95 -51l-65 13l27 296h281v-77h-217l-15 -154q43 48 105 48z" />
    <glyph glyph-name="sixsuperior" unicode="&#x2076;" horiz-adv-x="435" 
d="M131 351q0 -41 28 -73t69 -32q42 0 69 29.5t27 73.5q0 45 -27 73.5t-69 28.5q-41 0 -69 -27.5t-28 -72.5zM237 729q89 0 153 -79l-53 -54q-51 56 -102 56q-46 0 -76 -44q-37 -51 -38 -151q42 69 121 69q69 0 116 -49t47 -126q0 -76 -50 -128t-126 -52q-86 0 -136 60
q-54 62 -54 202q0 158 66 235q53 61 132 61z" />
    <glyph glyph-name="sevensuperior" unicode="&#x2077;" horiz-adv-x="412" 
d="M204 181h-92q17 254 199 462h-285v77h366v-69q-171 -205 -188 -470z" />
    <glyph glyph-name="eightsuperior" unicode="&#x2078;" horiz-adv-x="427" 
d="M212 171q-78 0 -128 44.5t-50 117.5q0 92 84 133q-64 40 -64 111q0 65 46 108.5t112 43.5t111.5 -43.5t45.5 -108.5q0 -71 -63 -111q36 -18 59.5 -52.5t23.5 -80.5q0 -73 -50 -117.5t-127 -44.5zM115 336q0 -38 27 -64t70 -26t69.5 27t26.5 63q0 38 -26 64.5t-70 26.5
q-45 0 -71 -26.5t-26 -64.5zM131 577q0 -34 21.5 -56t59.5 -22q36 0 58 23t22 55t-22.5 54.5t-57.5 22.5q-36 0 -58.5 -22t-22.5 -55z" />
    <glyph glyph-name="ninesuperior" unicode="&#x2079;" horiz-adv-x="435" 
d="M300 546q0 43 -27.5 74.5t-69.5 31.5t-69 -29t-27 -73q0 -46 27 -74t69 -28t69.5 27t27.5 71zM193 171q-89 0 -154 74l51 56q49 -55 103 -55q47 0 80 44q36 50 39 153q-43 -71 -120 -71q-71 0 -118 49.5t-47 127.5q0 75 49.5 127.5t124.5 52.5q85 0 137 -62
q55 -67 55 -202q0 -154 -65 -233q-52 -61 -135 -61z" />
    <glyph glyph-name="plussuperior" unicode="&#x207a;" horiz-adv-x="443" 
d="M254 484h136v-69h-136v-136h-70v136h-135v69h135v137h70v-137z" />
    <glyph glyph-name="minussuperior" unicode="&#x207b;" horiz-adv-x="443" 
d="M49 484h341v-69h-341v69z" />
    <glyph glyph-name="equalsuperior" unicode="&#x207c;" horiz-adv-x="443" 
d="M49 558h341v-70h-341v70zM49 411h341v-70h-341v70z" />
    <glyph glyph-name="parenleftsuperior" unicode="&#x207d;" horiz-adv-x="255" 
d="M64 388q0 176 97 332h74q-92 -157 -92 -332q0 -176 92 -333h-74q-97 154 -97 333z" />
    <glyph glyph-name="parenrightsuperior" unicode="&#x207e;" horiz-adv-x="255" 
d="M190 388q0 -181 -97 -333h-75q93 156 93 333q0 176 -93 332h75q97 -152 97 -332z" />
    <glyph glyph-name="nsuperior" unicode="&#x207f;" horiz-adv-x="439" 
d="M249 597q74 0 104.5 -46.5t30.5 -132.5v-238h-79v226q0 60 -16.5 88t-61.5 28q-93 0 -93 -123v-219h-79v408h79v-50q43 59 115 59z" />
    <glyph glyph-name="zeroinferior" unicode="&#x2080;" horiz-adv-x="447" 
d="M326 100q0 100 -28.5 151t-76.5 51t-76 -51.5t-28 -150.5q0 -100 28 -151.5t76 -51.5t76.5 51.5t28.5 151.5zM409 100q0 -161 -74 -233q-46 -46 -114 -46q-66 0 -114 46q-73 70 -73 233q0 158 73 231q48 48 114 48q69 0 115 -48q73 -73 73 -231z" />
    <glyph glyph-name="oneinferior" unicode="&#x2081;" horiz-adv-x="287" 
d="M26 224v60h17q45 0 76 22t41 64h62v-540h-82v394h-114z" />
    <glyph glyph-name="twoinferior" unicode="&#x2082;" horiz-adv-x="432" 
d="M394 -94v-76h-351v26q0 46 12 82q18 52 90 104l76 57q46 35 63.5 58t17.5 56q0 38 -25 63t-61 25q-70 0 -106 -88l-67 33q22 60 67.5 96.5t109.5 36.5q71 0 118 -48t47 -117q0 -55 -23 -90t-82 -78l-92 -65q-53 -37 -55 -75h261z" />
    <glyph glyph-name="threeinferior" unicode="&#x2083;" horiz-adv-x="407" 
d="M200 379q67 0 110 -42.5t43 -108.5q0 -78 -66 -112q38 -17 61.5 -53.5t23.5 -82.5q0 -72 -47.5 -115.5t-120.5 -43.5q-117 0 -177 105l64 45q44 -73 110 -73q39 0 63.5 23t24.5 62q0 62 -50 85q-19 9 -70 9h-32v72h18q57 0 78 10q40 17 40 67q0 33 -21 54.5t-54 21.5
q-57 0 -96 -65l-61 43q62 99 159 99z" />
    <glyph glyph-name="fourinferior" unicode="&#x2084;" horiz-adv-x="434" 
d="M265 253l-156 -217h156v217zM408 36v-73h-62v-133h-81v133h-239v77l239 330h81v-334h62z" />
    <glyph glyph-name="fiveinferior" unicode="&#x2085;" horiz-adv-x="418" 
d="M225 187q67 0 115.5 -51t48.5 -130q0 -80 -52 -132.5t-132 -52.5q-63 0 -108.5 34t-66.5 92l68 35q36 -85 107 -85q46 0 74 30.5t28 77.5q0 49 -29 78t-74 29q-52 0 -95 -51l-65 13l27 296h281v-77h-217l-15 -154q43 48 105 48z" />
    <glyph glyph-name="sixinferior" unicode="&#x2086;" horiz-adv-x="435" 
d="M131 1q0 -41 28 -73t69 -32q42 0 69 29.5t27 73.5q0 45 -27 73.5t-69 28.5q-41 0 -69 -27.5t-28 -72.5zM237 379q89 0 153 -79l-53 -54q-51 56 -102 56q-46 0 -76 -44q-37 -51 -38 -151q42 69 121 69q69 0 116 -49t47 -126q0 -76 -50 -128t-126 -52q-86 0 -136 60
q-54 62 -54 202q0 158 66 235q53 61 132 61z" />
    <glyph glyph-name="seveninferior" unicode="&#x2087;" horiz-adv-x="412" 
d="M204 -169h-92q17 254 199 462h-285v77h366v-69q-171 -205 -188 -470z" />
    <glyph glyph-name="eightinferior" unicode="&#x2088;" horiz-adv-x="427" 
d="M212 -179q-78 0 -128 44.5t-50 117.5q0 92 84 133q-64 40 -64 111q0 65 46 108.5t112 43.5t111.5 -43.5t45.5 -108.5q0 -71 -63 -111q36 -18 59.5 -52.5t23.5 -80.5q0 -73 -50 -117.5t-127 -44.5zM115 -14q0 -38 27 -64t70 -26t69.5 27t26.5 63q0 38 -26 64.5t-70 26.5
q-45 0 -71 -26.5t-26 -64.5zM131 227q0 -34 21.5 -56t59.5 -22q36 0 58 23t22 55t-22.5 54.5t-57.5 22.5q-36 0 -58.5 -22t-22.5 -55z" />
    <glyph glyph-name="nineinferior" unicode="&#x2089;" horiz-adv-x="435" 
d="M300 196q0 43 -27.5 74.5t-69.5 31.5t-69 -29t-27 -73q0 -46 27 -74t69 -28t69.5 27t27.5 71zM193 -179q-89 0 -154 74l51 56q49 -55 103 -55q47 0 80 44q36 50 39 153q-43 -71 -120 -71q-71 0 -118 49.5t-47 127.5q0 75 49.5 127.5t124.5 52.5q85 0 137 -62
q55 -67 55 -202q0 -154 -65 -233q-52 -61 -135 -61z" />
    <glyph glyph-name="parenleftinferior" unicode="&#x208d;" horiz-adv-x="255" 
d="M64 38q0 176 97 332h74q-92 -157 -92 -332q0 -176 92 -333h-74q-97 154 -97 333z" />
    <glyph glyph-name="parenrightinferior" unicode="&#x208e;" horiz-adv-x="255" 
d="M190 38q0 -181 -97 -333h-75q93 156 93 333q0 176 -93 332h75q97 -152 97 -332z" />
    <glyph glyph-name="franc" unicode="&#x20a3;" horiz-adv-x="544" 
d="M14 400v65h93v255h399v-91h-300v-164h272v-65h-272v-85h272v-65h-272v-250h-99v250h-93v65h93v85h-93z" />
    <glyph glyph-name="lira" unicode="&#x20a4;" horiz-adv-x="635" 
d="M32 250v65h114q-27 48 -39 85h-75v65h60q0 4 -0.5 12t-0.5 12q0 104 69.5 173.5t177.5 69.5q87 0 139.5 -34.5t90.5 -96.5l-82 -56q-31 46 -63.5 69t-84.5 23q-60 0 -102 -41.5t-42 -107.5q0 -15 1 -23h264v-65h-250q13 -30 41 -85h209v-65h-186q4 -24 4 -37
q0 -36 -15 -69q5 -1 51 -18l73 -28q49 -18 72 -18q64 0 64 91l91 -7q0 -89 -40.5 -132.5t-105.5 -43.5q-53 0 -113 24l-70 27q-46 19 -68 19q-61 0 -61 -77l-90 6q1 127 104 159q14 28 14 62q0 21 -7 42h-144z" />
    <glyph glyph-name="Euro" unicode="&#x20ac;" horiz-adv-x="825" 
d="M21 467h99q32 119 128 192t222 73q215 0 313 -188l-87 -51q-81 144 -226 144q-82 0 -147 -46.5t-94 -123.5h292v-65h-308q-3 -21 -3 -42q0 -22 3 -43h308v-65h-292q29 -77 94 -123t148 -46q164 0 231 164l92 -41q-36 -101 -117.5 -159.5t-205.5 -58.5q-128 0 -223.5 72.5
t-127.5 191.5h-99v65h87q-2 28 -2 43q0 28 2 42h-87v65z" />
    <glyph glyph-name="uni2113" unicode="&#x2113;" horiz-adv-x="417" 
d="M305 561q0 37 -18 60t-48 23q-32 0 -52 -23.5t-20 -66.5v-239l50 64q52 67 70 102t18 80zM336 -6q-24 -6 -62 -6q-92 0 -146.5 52t-54.5 142v370q0 81 45.5 130.5t120.5 49.5q72 0 115.5 -48.5t43.5 -122.5q0 -62 -25 -109t-97 -129l-109 -125v-19q0 -47 31.5 -75
t82.5 -28q33 0 50 5q4 -58 5 -87z" />
    <glyph glyph-name="trademark" unicode="&#x2122;" horiz-adv-x="631" 
d="M169 661v-249h-63v249h-89v59h242v-59h-90zM360 720l87 -148l88 148h63v-308h-63v190l-68 -113h-45l-65 112v-189h-61v308h64z" />
    <glyph glyph-name="Omega" unicode="&#x2126;" horiz-adv-x="719" 
d="M149 418q0 -86 47 -142.5t125 -73.5v-202h-267v91h172v53q-181 80 -181 273q0 136 90.5 225.5t223.5 89.5t224 -89.5t91 -224.5q0 -96 -48.5 -165.5t-134.5 -108.5v-53h172v-91h-267v202q77 16 125.5 74.5t48.5 141.5q0 93 -61.5 156t-149.5 63t-149 -63t-61 -156z" />
    <glyph glyph-name="estimated" unicode="&#x212e;" horiz-adv-x="767" 
d="M152 421h469q-13 100 -74 158t-156 58q-92 0 -158 -60.5t-81 -155.5zM724 330h-575q7 -112 77 -179.5t178 -67.5q152 0 205 144l98 -23q-30 -98 -110 -157t-195 -59q-159 0 -260 102t-101 270q0 81 29 151.5t77.5 118.5t112 75t132.5 27q151 0 243.5 -101t92.5 -249
q0 -28 -4 -52z" />
    <glyph glyph-name="onethird" unicode="&#x2153;" horiz-adv-x="997" 
d="M544 720h86l-298 -720h-86zM26 574v60h17q45 0 76 22t41 64h62v-540h-82v394h-114zM789 549q67 0 110 -42.5t43 -108.5q0 -78 -66 -112q38 -17 61.5 -53.5t23.5 -82.5q0 -72 -47.5 -115.5t-120.5 -43.5q-117 0 -177 105l64 45q44 -73 110 -73q39 0 63.5 23t24.5 62
q0 62 -50 85q-19 9 -70 9h-32v72h18q57 0 78 10q40 17 40 67q0 33 -21 54.5t-54 21.5q-57 0 -96 -65l-61 43q62 99 159 99z" />
    <glyph glyph-name="twothirds" unicode="&#x2154;" horiz-adv-x="1142" 
d="M689 720h86l-298 -720h-86zM394 256v-76h-351v26q0 46 12 82q18 52 90 104l76 57q46 35 63.5 58t17.5 56q0 38 -25 63t-61 25q-70 0 -106 -88l-67 33q22 60 67.5 96.5t109.5 36.5q71 0 118 -48t47 -117q0 -55 -23 -90t-82 -78l-92 -65q-53 -37 -55 -75h261zM934 549
q67 0 110 -42.5t43 -108.5q0 -78 -66 -112q38 -17 61.5 -53.5t23.5 -82.5q0 -72 -47.5 -115.5t-120.5 -43.5q-117 0 -177 105l64 45q44 -73 110 -73q39 0 63.5 23t24.5 62q0 62 -50 85q-19 9 -70 9h-32v72h18q57 0 78 10q40 17 40 67q0 33 -21 54.5t-54 21.5q-57 0 -96 -65
l-61 43q62 99 159 99z" />
    <glyph glyph-name="uni2160" unicode="&#x2160;" horiz-adv-x="245" 
d="M172 720v-720h-99v720h99z" />
    <glyph glyph-name="uni2161" unicode="&#x2161;" horiz-adv-x="490" 
d="M172 720v-720h-99v720h99zM417 720v-720h-99v720h99z" />
    <glyph glyph-name="uni2162" unicode="&#x2162;" horiz-adv-x="735" 
d="M172 720v-720h-99v720h99zM417 720v-720h-99v720h99zM662 720v-720h-99v720h99z" />
    <glyph glyph-name="uni2163" unicode="&#x2163;" horiz-adv-x="892" 
d="M172 720v-720h-99v720h99zM571 138l205 582h105l-261 -720h-106l-258 720h109z" />
    <glyph glyph-name="uni2164" unicode="&#x2164;" horiz-adv-x="647" 
d="M326 138l205 582h105l-261 -720h-106l-258 720h109z" />
    <glyph glyph-name="uni2165" unicode="&#x2165;" horiz-adv-x="892" 
d="M819 720v-720h-99v720h99zM326 138l205 582h105l-261 -720h-106l-258 720h109z" />
    <glyph glyph-name="uni2166" unicode="&#x2166;" horiz-adv-x="1137" 
d="M819 720v-720h-99v720h99zM1064 720v-720h-99v720h99zM326 138l205 582h105l-261 -720h-106l-258 720h109z" />
    <glyph glyph-name="uni2167" unicode="&#x2167;" horiz-adv-x="1382" 
d="M819 720v-720h-99v720h99zM1064 720v-720h-99v720h99zM1309 720v-720h-99v720h99zM326 138l205 582h105l-261 -720h-106l-258 720h109z" />
    <glyph glyph-name="uni2168" unicode="&#x2168;" horiz-adv-x="909" 
d="M172 720v-720h-99v720h99zM756 720h115l-232 -354l252 -366h-126l-196 295l-186 -295h-120l247 376l-235 344h123l184 -274z" />
    <glyph glyph-name="uni2169" unicode="&#x2169;" horiz-adv-x="664" 
d="M511 720h115l-232 -354l252 -366h-126l-196 295l-186 -295h-120l247 376l-235 344h123l184 -274z" />
    <glyph glyph-name="uni216A" unicode="&#x216a;" horiz-adv-x="909" 
d="M836 720v-720h-99v720h99zM511 720h115l-232 -354l252 -366h-126l-196 295l-186 -295h-120l247 376l-235 344h123l184 -274z" />
    <glyph glyph-name="uni216B" unicode="&#x216b;" horiz-adv-x="1154" 
d="M836 720v-720h-99v720h99zM1081 720v-720h-99v720h99zM511 720h115l-232 -354l252 -366h-126l-196 295l-186 -295h-120l247 376l-235 344h123l184 -274z" />
    <glyph glyph-name="uni216C" unicode="&#x216c;" horiz-adv-x="500" 
d="M73 0v720h99v-629h299v-91h-398z" />
    <glyph glyph-name="uni216D" unicode="&#x216d;" horiz-adv-x="762" 
d="M406 637q-111 0 -185.5 -79t-74.5 -198q0 -118 75 -197.5t185 -79.5q164 0 232 164l92 -41q-37 -101 -118 -159.5t-206 -58.5q-156 0 -260.5 105.5t-104.5 266.5q0 160 105.5 266t259.5 106q217 0 312 -188l-87 -51q-79 144 -225 144z" />
    <glyph glyph-name="uni216E" unicode="&#x216e;" horiz-adv-x="685" 
d="M73 0v720h209q163 0 262.5 -98t99.5 -262q0 -157 -101.5 -258.5t-266.5 -101.5h-203zM172 629v-538h98q125 0 198 74.5t73 194.5q0 123 -71.5 196t-191.5 73h-106z" />
    <glyph glyph-name="uni216F" unicode="&#x216f;" horiz-adv-x="849" 
d="M185 720l237 -406l241 406h113v-720h-99v559l-221 -365h-77l-213 368v-562h-93v720h112z" />
    <glyph glyph-name="uni2170" unicode="&#x2170;" horiz-adv-x="232" 
d="M163 541v-541h-94v541h94z" />
    <glyph glyph-name="uni2171" unicode="&#x2171;" horiz-adv-x="360" 
d="M163 541v-541h-94v541h94zM395 541v-541h-94v541h94z" />
    <glyph glyph-name="uni2172" unicode="&#x2172;" horiz-adv-x="488" 
d="M163 541v-541h-94v541h94zM395 541v-541h-94v541h94zM627 541v-541h-94v541h94z" />
    <glyph glyph-name="uni2173" unicode="&#x2173;" horiz-adv-x="509" 
d="M662 541h102l-216 -541h-98l-211 541h106l156 -414zM163 541v-541h-94v541h94z" />
    <glyph glyph-name="uni2174" unicode="&#x2174;" horiz-adv-x="539" 
d="M430 541h102l-216 -541h-98l-211 541h106l156 -414z" />
    <glyph glyph-name="uni2175" unicode="&#x2175;" horiz-adv-x="667" 
d="M430 541h102l-216 -541h-98l-211 541h106l156 -414zM702 541v-541h-94v541h94z" />
    <glyph glyph-name="uni2176" unicode="&#x2176;" horiz-adv-x="795" 
d="M430 541h102l-216 -541h-98l-211 541h106l156 -414zM702 541v-541h-94v541h94zM934 541v-541h-94v541h94z" />
    <glyph glyph-name="uni2177" unicode="&#x2177;" horiz-adv-x="923" 
d="M430 541h102l-216 -541h-98l-211 541h106l156 -414zM702 541v-541h-94v541h94zM934 541v-541h-94v541h94zM1166 541v-541h-94v541h94z" />
    <glyph glyph-name="uni2178" unicode="&#x2178;" horiz-adv-x="505" 
d="M632 541h115l-183 -264l197 -277h-120l-144 206l-132 -206h-120l193 284l-183 257h120l132 -189zM163 541v-541h-94v541h94z" />
    <glyph glyph-name="uni2179" unicode="&#x2179;" horiz-adv-x="542" 
d="M400 541h115l-183 -264l197 -277h-120l-144 206l-132 -206h-120l193 284l-183 257h120l132 -189z" />
    <glyph glyph-name="uni217B" unicode="&#x217b;" horiz-adv-x="798" 
d="M400 541h115l-183 -264l197 -277h-120l-144 206l-132 -206h-120l193 284l-183 257h120l132 -189zM705 541v-541h-94v541h94zM937 541v-541h-94v541h94z" />
    <glyph glyph-name="uni217C" unicode="&#x217c;" horiz-adv-x="232" 
d="M163 720v-720h-94v720h94z" />
    <glyph glyph-name="uni217D" unicode="&#x217d;" horiz-adv-x="584" 
d="M318 465q-78 0 -130 -55.5t-52 -139.5t52 -139t130 -55q112 0 161 115l83 -38q-28 -76 -89.5 -120.5t-155.5 -44.5q-118 0 -198 80.5t-80 201.5q0 122 80.5 202.5t197.5 80.5q165 0 235 -140l-79 -50q-54 102 -155 102z" />
    <glyph glyph-name="uni217E" unicode="&#x217e;" horiz-adv-x="643" 
d="M138 270q0 -86 47.5 -141t123.5 -55q77 0 125.5 53.5t48.5 142.5q0 91 -48.5 144t-125.5 53q-76 0 -123.5 -55.5t-47.5 -141.5zM39 270q0 125 74.5 204t180.5 79q117 0 186 -103v270h94v-720h-94v88q-66 -100 -189 -100q-107 0 -179.5 79.5t-72.5 202.5z" />
    <glyph glyph-name="uni217F" unicode="&#x217f;" horiz-adv-x="860" 
d="M630 553q94 0 130.5 -58.5t36.5 -161.5v-333h-94v315q0 79 -22 114.5t-79 35.5q-122 0 -122 -174v-291h-94v315q0 79 -22 114.5t-79 35.5q-122 0 -122 -174v-291h-94v541h94v-80q56 92 152 92q56 0 94.5 -29t55.5 -76q27 48 69.5 76.5t95.5 28.5z" />
    <glyph glyph-name="partialdiff" unicode="&#x2202;" horiz-adv-x="551" 
d="M394 222q0 63 -39 103.5t-96 40.5q-59 0 -96.5 -40t-37.5 -105q0 -62 37.5 -103.5t96.5 -41.5q57 0 96 44t39 102zM412 351q-1 157 -53 231q-44 62 -115 62q-72 0 -149 -68l-48 70q92 86 197 86q116 0 185 -90q76 -98 76 -304q0 -187 -72 -270q-69 -80 -175 -80
q-99 0 -163.5 68t-64.5 167q0 101 61.5 165t151.5 64q113 0 169 -101z" />
    <glyph glyph-name="Delta" unicode="&#x2206;" horiz-adv-x="704" 
d="M688 0h-672l292 720h98zM354 585l-198 -494h389z" />
    <glyph glyph-name="product" unicode="&#x220f;" horiz-adv-x="718" 
d="M546 -169v798h-374v-798h-99v889h572v-889h-99z" />
    <glyph glyph-name="summation" unicode="&#x2211;" horiz-adv-x="561" 
d="M547 -169h-517v83l260 366l-249 358v81h494v-90h-373l244 -349l-255 -358h396v-91z" />
    <glyph glyph-name="minus" unicode="&#x2212;" 
d="M57 401h450v-82h-450v82z" />
    <glyph glyph-name="radical" unicode="&#x221a;" horiz-adv-x="650" 
d="M667 878l-383 -1047h-76l-187 450h94l129 -320l335 917h88z" />
    <glyph glyph-name="infinity" unicode="&#x221e;" 
d="M112 359q0 -27 13.5 -43t34.5 -16q45 0 79 50l-21 27q-32 40 -59 40q-20 0 -33.5 -16t-13.5 -42zM302 271l-20 23q-28 -41 -57 -58.5t-66 -17.5q-53 0 -90 37.5t-37 101.5q0 63 37 102.5t89 39.5q61 0 104 -52l20 -25q53 77 123 77q54 0 90.5 -38t36.5 -101t-36 -102.5
t-88 -39.5q-59 0 -106 53zM451 358q0 26 -13.5 42.5t-34.5 16.5q-41 0 -77 -51l19 -24q34 -42 62 -42q18 0 31 16t13 42z" />
    <glyph glyph-name="integral" unicode="&#x222b;" horiz-adv-x="334" 
d="M120 -30v612q0 66 37.5 108t108.5 42q37 0 63 -8l-10 -85q-23 5 -45 5q-60 0 -60 -64v-611q0 -66 -38 -108t-109 -42q-36 0 -62 8l9 84q19 -4 45 -4q61 0 61 63z" />
    <glyph glyph-name="approxequal" unicode="&#x2248;" 
d="M178 536q37 0 86 -23l62 -29q37 -18 58 -18q52 0 52 70l75 -6q0 -70 -35 -108t-90 -38q-37 0 -86 23l-62 29q-37 18 -58 18q-52 0 -52 -70l-75 6q0 70 35 108t90 38zM178 336q37 0 86 -23l62 -29q37 -18 58 -18q52 0 52 70l75 -6q0 -70 -35 -108t-90 -38q-37 0 -86 23
l-62 29q-37 18 -58 18q-52 0 -52 -70l-75 6q0 70 35 108t90 38z" />
    <glyph glyph-name="notequal" unicode="&#x2260;" 
d="M294 301h213v-82h-261l-80 -137l-71 42l56 95h-94v82h141l70 118h-211v82h258l82 139l71 -42l-58 -97h97v-82h-144z" />
    <glyph glyph-name="lessequal" unicode="&#x2264;" 
d="M507 186l-450 197v53l450 197v-93l-320 -130l320 -130v-94zM57 160h450v-82h-450v82z" />
    <glyph glyph-name="greaterequal" unicode="&#x2265;" 
d="M507 383l-450 -197v94l320 130l-320 130v93l450 -197v-53zM57 160h450v-82h-450v82z" />
    <glyph glyph-name="lozenge" unicode="&#x25ca;" horiz-adv-x="549" 
d="M230 0l-198 360l198 360h89l198 -360l-198 -360h-89zM420 360l-145 267l-145 -267l145 -267z" />
    <glyph glyph-name="commaaccent" unicode="&#xf6c3;" horiz-adv-x="500" 
d="M203 -191l2 156h97l-49 -156h-50z" />
    <glyph glyph-name="dblgrave" unicode="&#xf6d6;" horiz-adv-x="500" 
d="M198 720l61 -136h-64l-100 136h103zM344 720l61 -136h-64l-100 136h103z" />
    <glyph glyph-name="asuperior" unicode="&#xf6e9;" horiz-adv-x="413" 
d="M277 363v14q-18 -12 -46 -20l-65 -18q-55 -15 -55 -56q0 -19 15 -31t40 -12q45 0 78 31.5t33 91.5zM206 597q99 0 133 -67q17 -34 17 -84v-187q0 -18 14 -18q10 0 17 1v-68q-11 -3 -27 -3q-74 0 -83 69q-44 -69 -123 -69q-55 0 -88.5 30t-33.5 79q0 92 121 120l85 20
q23 5 31 13.5t8 25.5q0 31 -19.5 48t-54.5 17q-69 0 -82 -68l-78 7q7 58 51 96t112 38z" />
    <glyph glyph-name="bsuperior" unicode="&#xf6ea;" horiz-adv-x="493" 
d="M372 383q0 60 -34 100t-87 40q-55 0 -88.5 -37t-33.5 -103q0 -62 34.5 -100.5t88.5 -38.5t87 38.5t33 100.5zM455 383q0 -93 -55 -152.5t-137 -59.5q-84 0 -132 62v-53h-79v540h79v-192q51 69 133 69q80 0 135.5 -60t55.5 -154z" />
    <glyph glyph-name="dsuperior" unicode="&#xf6eb;" horiz-adv-x="493" 
d="M116 383q0 -60 33.5 -99.5t87.5 -39.5q55 0 89 38t34 101q0 65 -34 103t-89 38q-54 0 -87.5 -40t-33.5 -101zM34 383q0 95 55.5 154.5t136.5 59.5q82 0 132 -67v190h79v-540h-79v56q-49 -65 -134 -65q-81 0 -135.5 59.5t-54.5 152.5z" />
    <glyph glyph-name="esuperior" unicode="&#xf6ec;" horiz-adv-x="464" 
d="M118 424h228q-8 45 -37.5 72t-73.5 27q-45 0 -77 -27.5t-40 -71.5zM425 359h-309q4 -50 38 -82.5t87 -32.5q73 0 99 70l78 -13q-18 -59 -65 -94.5t-112 -35.5q-92 0 -149 57.5t-57 154.5q0 94 58.5 154t141.5 60q87 0 139.5 -58.5t52.5 -143.5q0 -8 -2 -36z" />
    <glyph glyph-name="isuperior" unicode="&#xf6ed;" horiz-adv-x="189" 
d="M133 588v-408h-79v408h79zM46 680q0 21 13 34t34 13t34 -13t13 -34t-13 -34t-34 -13t-34 13t-13 34z" />
    <glyph glyph-name="lsuperior" unicode="&#xf6ee;" horiz-adv-x="189" 
d="M133 720v-540h-79v540h79z" />
    <glyph glyph-name="msuperior" unicode="&#xf6ef;" horiz-adv-x="660" 
d="M474 597q128 0 128 -168v-249h-79v237q0 54 -15 79.5t-54 25.5q-85 0 -85 -127v-215h-79v237q0 53 -15.5 79t-54.5 26q-85 0 -85 -126v-216h-79v408h79v-48q43 57 108 57q79 0 111 -71q20 32 52 51.5t68 19.5z" />
    <glyph glyph-name="osuperior" unicode="&#xf6f0;" horiz-adv-x="493" 
d="M34 383q0 93 60 153.5t150 60.5t150.5 -61t60.5 -153q0 -88 -61 -150t-150 -62q-90 0 -150 60t-60 152zM115 383q0 -59 37 -98.5t93 -39.5q54 0 91.5 40.5t37.5 97.5q0 60 -37 99.5t-92 39.5q-56 0 -93 -39.5t-37 -99.5z" />
    <glyph glyph-name="rsuperior" unicode="&#xf6f1;" horiz-adv-x="289" 
d="M272 594v-82q-24 4 -36 4q-37 0 -62 -21.5t-35 -59.5q-6 -24 -6 -82v-173h-78v408h78v-59q39 68 111 68q16 0 28 -3z" />
    <glyph glyph-name="ssuperior" unicode="&#xf6f2;" horiz-adv-x="347" 
d="M185 244q28 0 43 11.5t15 30.5q0 27 -40 46l-76 36q-85 39 -85 113q0 46 36.5 81t90.5 35q85 0 134 -75l-59 -48q-34 50 -77 50q-22 0 -35.5 -12t-13.5 -29q0 -26 35 -41l82 -37q85 -39 85 -118q0 -52 -38 -84t-99 -32q-115 0 -160 100l66 41q32 -68 96 -68z" />
    <glyph glyph-name="tsuperior" unicode="&#xf6f3;" horiz-adv-x="265" 
d="M247 516h-76v-336h-79v336h-76v72h76v80l79 17v-97h76v-72z" />
    <glyph glyph-name="acute.cap" horiz-adv-x="500" 
d="M166 763l50 115h121l-100 -115h-71z" />
    <glyph glyph-name="grave.cap" horiz-adv-x="500" 
d="M283 878l50 -115h-71l-100 115h121z" />
    <glyph glyph-name="dieresis.cap" horiz-adv-x="500" 
d="M115 832q0 24 14.5 38.5t37.5 14.5q24 0 38.5 -14.5t14.5 -38.5q0 -23 -14.5 -37.5t-38.5 -14.5q-23 0 -37.5 14.5t-14.5 37.5zM280 832q0 24 14.5 38.5t37.5 14.5q24 0 38.5 -14.5t14.5 -38.5q0 -23 -14.5 -37.5t-38.5 -14.5q-23 0 -37.5 14.5t-14.5 37.5z" />
    <glyph glyph-name="circumflex.cap" horiz-adv-x="500" 
d="M82 762l119 116h99l118 -116h-88l-80 53l-80 -53h-88z" />
    <glyph glyph-name="tilde.cap" horiz-adv-x="500" 
d="M240 784q-39 19 -56 19q-30 0 -33 -40l-58 7q1 51 26.5 79.5t65.5 28.5q29 0 75 -23q39 -20 56 -20q28 0 33 41l58 -7q-1 -51 -26.5 -80t-65.5 -29q-27 0 -75 24z" />
    <glyph glyph-name="macron.cap" horiz-adv-x="500" 
d="M116 801v72h268v-72h-268z" />
    <glyph glyph-name="breve.cap" horiz-adv-x="500" 
d="M331 878h55q-2 -54 -39.5 -88t-96.5 -34t-95.5 34t-40.5 88h55q20 -50 81 -50t81 50z" />
    <glyph glyph-name="dotaccent.cap" horiz-adv-x="500" 
d="M193 826q0 26 15.5 41.5t41.5 15.5t41.5 -15.5t15.5 -41.5t-15.5 -41.5t-41.5 -15.5t-41.5 15.5t-15.5 41.5z" />
    <glyph glyph-name="ring.cap" horiz-adv-x="500" 
d="M135 764q0 48 34 81t81 33t81 -33t34 -81t-34 -81t-81 -33t-81 33t-34 81zM196 764q0 -23 15.5 -39t38.5 -16t38.5 16t15.5 39t-16 39t-38 16q-23 0 -38.5 -16t-15.5 -39z" />
    <glyph glyph-name="hungarumlaut.cap" horiz-adv-x="500" 
d="M97 757l56 121h108l-100 -121h-64zM239 757l55 121h109l-100 -121h-64z" />
    <glyph glyph-name="caron.cap" horiz-adv-x="500" 
d="M201 762l-119 116h88l80 -53l80 53h88l-118 -116h-99z" />
    <glyph glyph-name="zero.plf" horiz-adv-x="572" 
d="M434 360q0 139 -40 210t-108 71t-108 -71t-40 -210t40 -210t108 -71t108 71t40 210zM534 360q0 -210 -98 -310q-62 -62 -150 -62t-150 62q-98 100 -98 310t98 310q62 62 150 62t150 -62q98 -100 98 -310z" />
    <glyph glyph-name="one.plf" horiz-adv-x="363" 
d="M30 535v69h16q65 0 108.5 29.5t57.5 86.5h70v-720h-98v535h-154z" />
    <glyph glyph-name="two.plf" horiz-adv-x="543" 
d="M504 90v-90h-463v30q0 63 16 107q15 41 43 73t76 67l104 76q65 47 88.5 79.5t23.5 81.5q0 55 -35.5 90.5t-87.5 35.5q-100 0 -147 -118l-79 40q27 77 86.5 123.5t142.5 46.5q95 0 157 -63t62 -155q0 -72 -30.5 -119t-108.5 -102l-126 -88q-74 -52 -78 -115h356z" />
    <glyph glyph-name="three.plf" horiz-adv-x="520" 
d="M257 732q88 0 144 -55.5t56 -141.5q0 -106 -97 -155q55 -20 89 -69t34 -114q0 -95 -63 -152t-163 -57q-154 0 -227 132l75 54q28 -49 63.5 -71.5t86.5 -22.5q59 0 94.5 33.5t35.5 88.5q0 88 -76 121q-29 13 -97 13h-38v84h20q74 0 107 14q62 26 62 97q0 47 -30.5 78.5
t-77.5 31.5q-77 0 -136 -86l-71 50q77 127 209 127z" />
    <glyph glyph-name="four.plf" horiz-adv-x="555" 
d="M353 589l-233 -322h233v322zM532 267v-87h-84v-180h-95v180h-326v96l322 444h99v-453h84z" />
    <glyph glyph-name="five.plf" horiz-adv-x="534" 
d="M287 472q90 0 155 -67.5t65 -172.5q0 -104 -70 -174t-175 -70q-82 0 -141.5 46t-85.5 123l79 42q47 -120 147 -120q65 0 106.5 43t41.5 109q0 70 -41 111.5t-105 41.5q-74 0 -132 -70l-79 17l36 389h369v-91h-294l-22 -224q62 67 146 67z" />
    <glyph glyph-name="six.plf" horiz-adv-x="557" 
d="M157 225q0 -58 39.5 -102.5t99.5 -44.5t98 41.5t38 103.5q0 65 -38.5 105.5t-97.5 40.5q-60 0 -99.5 -39.5t-39.5 -104.5zM309 732q118 0 197 -99l-63 -65q-34 38 -65 56t-71 18q-66 0 -111 -63q-52 -75 -55 -222q25 45 69.5 73t101.5 28q93 0 155 -65.5t62 -167.5
q0 -99 -66.5 -168t-165.5 -69q-112 0 -179 80q-74 90 -74 270q0 209 90 313q69 81 175 81z" />
    <glyph glyph-name="seven.plf" horiz-adv-x="526" 
d="M27 630v90h484v-83q-231 -273 -254 -637h-113q12 176 86 339t188 291h-391z" />
    <glyph glyph-name="eight.plf" horiz-adv-x="546" 
d="M273 -12q-102 0 -168 59t-66 154q0 64 32.5 110t82.5 70q-89 54 -89 152q0 85 60 142t148 57q87 0 147 -57.5t60 -141.5q0 -101 -89 -153q50 -21 83 -67.5t33 -110.5q0 -96 -66.5 -155t-167.5 -59zM135 205q0 -54 38 -91t100 -37q61 0 99.5 38t38.5 90q0 55 -37.5 92.5
t-100.5 37.5q-64 0 -101 -37.5t-37 -92.5zM157 533q0 -48 31 -80.5t85 -32.5q52 0 83.5 33t31.5 80t-32 79t-83 32q-52 0 -84 -32t-32 -79z" />
    <glyph glyph-name="nine.plf" horiz-adv-x="557" 
d="M400 495q0 58 -39.5 102.5t-99.5 44.5t-98 -41.5t-38 -103.5q0 -65 38.5 -105.5t97.5 -40.5q60 0 99.5 39.5t39.5 104.5zM248 -12q-118 0 -197 99l63 65q34 -38 65 -56t71 -18q66 0 111 63q52 75 55 222q-25 -45 -69.5 -73t-101.5 -28q-93 0 -155 65.5t-62 167.5
q0 99 66.5 168t165.5 69q112 0 179 -80q74 -90 74 -270q0 -209 -90 -313q-69 -81 -175 -81z" />
    <glyph glyph-name="commaaccent.salt" horiz-adv-x="500" 
d="M203 554l2 166h97l-49 -166h-50z" />
    <glyph glyph-name="zero.osf" horiz-adv-x="665" 
d="M38 281q0 127 84.5 210.5t209.5 83.5t209.5 -83.5t84.5 -210.5q0 -121 -85.5 -207t-208.5 -86q-125 0 -209.5 83.5t-84.5 209.5zM138 281q0 -87 55.5 -144.5t138.5 -57.5t138.5 59t55.5 143q0 87 -55 145t-139 58q-83 0 -138.5 -58t-55.5 -145z" />
    <glyph glyph-name="one.osf" horiz-adv-x="363" 
d="M30 378v69h16q65 0 108.5 29.5t57.5 86.5h70v-563h-98v378h-154z" />
    <glyph glyph-name="two.osf" horiz-adv-x="512" 
d="M460 398q0 -61 -30.5 -100.5t-100.5 -72.5l-108 -51q-69 -32 -74 -84h326v-90h-433v33q0 59 16 97q33 75 137 125l63 30q63 30 84 54t21 56q0 38 -26.5 63t-69.5 25q-92 0 -136 -104l-79 39q27 72 83.5 114.5t135.5 42.5q84 0 137.5 -50.5t53.5 -126.5z" />
    <glyph glyph-name="three.osf" horiz-adv-x="520" 
d="M256 -77q58 0 94 33t36 89q0 88 -76 121q-30 13 -97 13h-38v84h19q74 0 108 14q61 26 61 97q0 47 -30.5 78.5t-77.5 31.5q-82 0 -134 -88l-72 50q76 129 209 129q87 0 143.5 -55.5t56.5 -141.5q0 -105 -96 -155q55 -20 88.5 -69t33.5 -114q0 -95 -63.5 -152t-163.5 -57
q-154 0 -227 136l76 54q54 -98 150 -98z" />
    <glyph glyph-name="four.osf" horiz-adv-x="555" 
d="M353 428l-233 -342h233v342zM532 86v-86h-84v-169h-95v169h-326v95l322 468h99v-477h84z" />
    <glyph glyph-name="five.osf" horiz-adv-x="534" 
d="M287 315q90 0 155 -67.5t65 -172.5q0 -104 -70 -174t-175 -70q-82 0 -141.5 46t-85.5 123l79 42q47 -120 147 -120q65 0 106.5 43t41.5 109q0 70 -41 111.5t-105 41.5q-74 0 -132 -70l-79 17l36 389h369v-91h-294l-22 -224q62 67 146 67z" />
    <glyph glyph-name="six.osf" horiz-adv-x="557" 
d="M157 225q0 -58 39 -102.5t99 -44.5q61 0 99 41.5t38 103.5q0 65 -38.5 105.5t-98.5 40.5t-99 -39.5t-39 -104.5zM309 732q117 0 196 -99l-63 -65q-33 37 -64.5 55.5t-71.5 18.5q-68 0 -111 -63q-53 -75 -54 -222q25 45 69 73t101 28q93 0 155.5 -65.5t62.5 -167.5
q0 -99 -66.5 -168t-165.5 -69q-112 0 -179 80q-74 88 -74 270q0 208 90 314q68 80 175 80z" />
    <glyph glyph-name="seven.osf" horiz-adv-x="526" 
d="M27 563h484v-82q-114 -137 -179 -294t-75 -356h-113q9 180 82.5 344.5t189.5 296.5h-389v91z" />
    <glyph glyph-name="eight.osf" horiz-adv-x="546" 
d="M273 -12q-102 0 -168 59t-66 154q0 64 32.5 110t82.5 70q-89 54 -89 152q0 85 60 142t148 57q87 0 147 -57.5t60 -141.5q0 -101 -89 -153q50 -21 83 -67.5t33 -110.5q0 -96 -66.5 -155t-167.5 -59zM135 205q0 -54 38 -91t100 -37q61 0 99.5 38t38.5 90q0 55 -37.5 92.5
t-100.5 37.5q-64 0 -101 -37.5t-37 -92.5zM157 533q0 -48 31 -80.5t85 -32.5q52 0 83.5 33t31.5 80t-32 79t-83 32q-52 0 -84 -32t-32 -79z" />
    <glyph glyph-name="nine.osf" horiz-adv-x="557" 
d="M400 334q0 61 -39.5 106t-99.5 45t-98 -41.5t-38 -104.5q0 -65 38.5 -105t97.5 -40q60 0 99.5 38.5t39.5 101.5zM248 -169q-118 0 -198 100l61 64q68 -74 139 -74q67 0 111 61q54 74 55 223q-25 -45 -69.5 -72.5t-101.5 -27.5q-93 0 -155 65t-62 167q0 99 66.5 168.5
t165.5 69.5q112 0 179 -80q74 -90 74 -270q0 -210 -88 -314q-66 -80 -177 -80z" />
    <glyph glyph-name="zero.tosf" 
d="M430 281q0 95 -40.5 149t-107.5 54t-107.5 -53.5t-40.5 -149.5t40.5 -149t107.5 -53t107.5 53t40.5 149zM530 281q0 -127 -68 -210t-180 -83q-115 0 -181.5 85t-66.5 208q0 127 68 210.5t180 83.5q115 0 181.5 -85.5t66.5 -208.5z" />
    <glyph glyph-name="one.tosf" 
d="M115 378v69h16q65 0 108.5 29.5t57.5 86.5h70v-563h-98v378h-154z" />
    <glyph glyph-name="two.tosf" 
d="M488 398q0 -61 -30.5 -100.5t-100.5 -72.5l-108 -51q-69 -32 -74 -84h326v-90h-433v33q0 59 16 97q33 75 137 125l63 30q63 30 84 54t21 56q0 38 -26.5 63t-69.5 25q-92 0 -136 -104l-79 39q27 72 83.5 114.5t135.5 42.5q84 0 137.5 -50.5t53.5 -126.5z" />
    <glyph glyph-name="three.tosf" horiz-adv-x="546" 
d="M280 -77q58 0 94 33t36 89q0 88 -76 121q-30 13 -97 13h-38v84h19q74 0 108 14q61 26 61 97q0 47 -30.5 78.5t-77.5 31.5q-82 0 -134 -88l-72 50q76 129 209 129q87 0 143.5 -55.5t56.5 -141.5q0 -105 -96 -155q55 -20 88.5 -69t33.5 -114q0 -95 -63.5 -152t-163.5 -57
q-154 0 -227 136l76 54q54 -98 150 -98z" />
    <glyph glyph-name="four.tosf" 
d="M357 428l-232 -342h232v342zM537 86v-86h-85v-169h-95v169h-325v95l321 468h99v-477h85z" />
    <glyph glyph-name="five.tosf" 
d="M302 315q90 0 155 -67.5t65 -172.5q0 -104 -70 -174t-175 -70q-82 0 -141.5 46t-85.5 123l79 42q47 -120 147 -120q65 0 106.5 43t41.5 109q0 70 -41 111.5t-105 41.5q-74 0 -132 -70l-79 17l36 389h369v-91h-294l-22 -224q62 67 146 67z" />
    <glyph glyph-name="six.tosf" 
d="M160 225q0 -58 39 -102.5t99 -44.5q61 0 99 41.5t38 103.5q0 65 -38.5 105.5t-98.5 40.5t-99 -39.5t-39 -104.5zM312 732q117 0 196 -99l-63 -65q-33 37 -64.5 55.5t-71.5 18.5q-68 0 -111 -63q-53 -75 -54 -222q25 45 69 73t101 28q93 0 155.5 -65.5t62.5 -167.5
q0 -99 -66.5 -168t-165.5 -69q-112 0 -179 80q-74 88 -74 270q0 208 90 314q68 80 175 80z" />
    <glyph glyph-name="seven.tosf" 
d="M46 563h484v-82q-114 -137 -179 -294t-75 -356h-113q9 180 82.5 344.5t189.5 296.5h-389v91z" />
    <glyph glyph-name="eight.tosf" 
d="M282 -12q-102 0 -168 59t-66 154q0 64 32.5 110t82.5 70q-89 54 -89 152q0 85 60 142t148 57q87 0 147 -57.5t60 -141.5q0 -101 -89 -153q50 -21 83 -67.5t33 -110.5q0 -96 -66.5 -155t-167.5 -59zM144 205q0 -54 38 -91t100 -37q61 0 99.5 38t38.5 90q0 55 -37.5 92.5
t-100.5 37.5q-64 0 -101 -37.5t-37 -92.5zM166 533q0 -48 31 -80.5t85 -32.5q52 0 83.5 33t31.5 80t-32 79t-83 32q-52 0 -84 -32t-32 -79z" />
    <glyph glyph-name="nine.tosf" 
d="M403 334q0 61 -39.5 106t-99.5 45t-98 -41.5t-38 -104.5q0 -65 38.5 -105t97.5 -40q60 0 99.5 38.5t39.5 101.5zM251 -169q-118 0 -198 100l61 64q68 -74 139 -74q67 0 111 61q54 74 55 223q-25 -45 -69.5 -72.5t-101.5 -27.5q-93 0 -155 65t-62 167q0 99 66.5 168.5
t165.5 69.5q112 0 179 -80q74 -90 74 -270q0 -210 -88 -314q-66 -80 -177 -80z" />
    <glyph glyph-name="csuperior" horiz-adv-x="454" 
d="M244 522q-56 0 -92.5 -39.5t-36.5 -99.5q0 -59 37 -98.5t92 -39.5q77 0 115 87l70 -32q-48 -129 -186 -129q-89 0 -149 60t-60 152t60.5 153t148.5 61q124 0 180 -110l-67 -41q-41 76 -112 76z" />
    <glyph glyph-name="fsuperior" horiz-adv-x="265" 
d="M171 612v-24h76v-72h-76v-336h-79v336h-76v72h76v25q0 51 29 83.5t84 32.5q28 0 52 -7l-9 -72q-16 4 -38 4q-39 0 -39 -42z" />
    <glyph glyph-name="gsuperior" horiz-adv-x="487" 
d="M428 588v-350q0 -89 -50.5 -140t-142.5 -51q-80 0 -127 36t-59 93l76 13q25 -69 110 -69q114 0 114 120v15q-47 -62 -126 -62q-80 0 -133 57t-53 145q0 89 54 145.5t131 56.5q79 0 127 -64v55h79zM119 394q0 -56 32 -92t84 -36t84.5 35t32.5 93q0 60 -32.5 95t-84.5 35
q-51 0 -83.5 -37t-32.5 -93z" />
    <glyph glyph-name="ksuperior" horiz-adv-x="427" 
d="M415 180h-104l-119 169l-58 -64v-105h-79v540h79v-322l168 190h103l-159 -177z" />
    <glyph glyph-name="psuperior" horiz-adv-x="493" 
d="M372 383q0 60 -34 100t-87 40q-55 0 -88.5 -37t-33.5 -103q0 -62 34.5 -100.5t88.5 -38.5t87 38.5t33 100.5zM455 383q0 -93 -55 -152.5t-137 -59.5q-84 0 -132 63v-179h-79v533h79v-60q50 69 133 69q80 0 135.5 -60t55.5 -154z" />
    <glyph glyph-name="qsuperior" horiz-adv-x="493" 
d="M116 383q0 -60 33.5 -99.5t87.5 -39.5q55 0 89 38t34 101q0 65 -34 103t-89 38q-54 0 -87.5 -40t-33.5 -101zM34 383q0 95 55.5 154.5t136.5 59.5q82 0 132 -66v57h79v-533h-79v180q-49 -64 -134 -64q-81 0 -135.5 59.5t-54.5 152.5z" />
    <glyph glyph-name="usuperior" horiz-adv-x="439" 
d="M187 171q-52 0 -85 27t-45 72q-7 27 -7 87v231h79v-230q0 -30 6 -59q11 -54 71 -54q50 0 72 30.5t22 92.5v220h79v-408h-79v49q-43 -58 -113 -58z" />
    <glyph glyph-name="vsuperior" horiz-adv-x="422" 
d="M323 588h87l-163 -408h-80l-159 408h90l111 -295z" />
    <glyph glyph-name="zsuperior" horiz-adv-x="406" 
d="M39 516v72h330v-60l-230 -277h241v-71h-356v55l232 281h-217z" />
    <glyph glyph-name="minus.osf" 
d="M49 323h450v-82h-450v82z" />
    <glyph glyph-name="multiply.osf" 
d="M274 340l130 130l58 -58l-130 -130l130 -130l-58 -58l-130 130l-130 -130l-58 58l130 130l-130 130l58 58z" />
    <glyph glyph-name="plus.osf" 
d="M315 323h184v-82h-184v-184h-82v184h-184v82h184v184h82v-184z" />
    <glyph glyph-name="less.osf" 
d="M499 58l-450 197v53l450 197v-93l-320 -130l320 -130v-94z" />
    <glyph glyph-name="equal.osf" 
d="M49 423h450v-82h-450v82zM49 223h450v-82h-450v82z" />
    <glyph glyph-name="greater.osf" 
d="M499 255l-450 -197v94l320 130l-320 130v93l450 -197v-53z" />
    <glyph glyph-name="asciitilde.osf" 
d="M178 358q37 0 86 -23l62 -29q37 -18 58 -18q52 0 52 70l75 -6q0 -70 -35 -108t-90 -38q-37 0 -86 23l-62 29q-37 18 -58 18q-52 0 -52 -70l-75 6q0 70 35 108t90 38z" />
    <glyph glyph-name="notequal.osf" 
d="M286 223h213v-82h-261l-80 -137l-71 42l56 95h-94v82h141l70 118h-211v82h258l82 139l71 -42l-58 -97h97v-82h-144z" />
    <glyph glyph-name="infinity.osf" 
d="M112 281q0 -27 13.5 -43t34.5 -16q45 0 79 50l-21 27q-32 40 -59 40q-20 0 -33.5 -16t-13.5 -42zM302 193l-20 23q-28 -41 -57 -58.5t-66 -17.5q-53 0 -90 37.5t-37 101.5q0 63 37 102.5t89 39.5q61 0 104 -52l20 -25q53 77 123 77q54 0 90.5 -38t36.5 -101t-36 -102.5
t-88 -39.5q-59 0 -106 53zM451 280q0 26 -13.5 42.5t-34.5 16.5q-41 0 -77 -51l19 -24q34 -42 62 -42q18 0 31 16t13 42z" />
    <glyph glyph-name="plusminus.osf" 
d="M315 132h184v-82h-450v82h184v138h-184v82h184v164h82v-164h184v-82h-184v-138z" />
    <glyph glyph-name="lessequal.osf" 
d="M499 111l-450 197v53l450 197v-93l-320 -130l320 -130v-94zM49 85h450v-82h-450v82z" />
    <glyph glyph-name="greaterequal.osf" 
d="M499 308l-450 -197v94l320 130l-320 130v93l450 -197v-53zM49 85h450v-82h-450v82z" />
    <glyph glyph-name="logicalnot.osf" 
d="M499 423v-282h-82v200h-368v82h450z" />
    <glyph glyph-name="approxequal.osf" 
d="M170 458q37 0 86 -23l62 -29q37 -18 58 -18q52 0 52 70l75 -6q0 -70 -35 -108t-90 -38q-37 0 -86 23l-62 29q-37 18 -58 18q-52 0 -52 -70l-75 6q0 70 35 108t90 38zM170 258q37 0 86 -23l62 -29q37 -18 58 -18q52 0 52 70l75 -6q0 -70 -35 -108t-90 -38q-37 0 -86 23
l-62 29q-37 18 -58 18q-52 0 -52 -70l-75 6q0 70 35 108t90 38z" />
    <glyph glyph-name="divide.osf" 
d="M49 323h450v-82h-450v82zM223 457q0 22 14.5 36t36.5 14t36 -14t14 -36t-14 -36.5t-36 -14.5t-36.5 14t-14.5 37zM223 106q0 22 14.5 36t36.5 14t36 -14t14 -36t-14 -36.5t-36 -14.5t-36.5 14.5t-14.5 36.5z" />
    <glyph glyph-name="periodcentered.osf" horiz-adv-x="235" 
d="M55 281q0 28 17 45.5t45 17.5q29 0 46 -17t17 -46q0 -28 -17.5 -45t-45.5 -17t-45 17t-17 45z" />
    <glyph glyph-name="hyphen.case" horiz-adv-x="235" 
d="M217 401v-84h-200v84h200z" />
    <glyph glyph-name="endash.case" horiz-adv-x="500" 
d="M0 323v72h500v-72h-500z" />
    <glyph glyph-name="emdash.case" horiz-adv-x="1000" 
d="M0 323v72h1000v-72h-1000z" />
    <glyph glyph-name="parenleft.case" horiz-adv-x="320" 
d="M82 365q0 240 128 443h87q-121 -204 -121 -443q0 -242 121 -446h-87q-128 201 -128 446z" />
    <glyph glyph-name="parenright.case" horiz-adv-x="320" 
d="M238 365q0 -245 -128 -446h-87q121 204 121 446q0 239 -121 443h87q128 -203 128 -443z" />
    <glyph glyph-name="bracketleft.case" horiz-adv-x="320" 
d="M170 -5h127v-76h-209v889h209v-76h-127v-737z" />
    <glyph glyph-name="bracketright.case" horiz-adv-x="320" 
d="M23 -5h127v737h-127v76h209v-889h-209v76z" />
    <glyph glyph-name="braceleft.case" horiz-adv-x="320" 
d="M113 363q41 -13 58.5 -39t17.5 -75v-184q0 -70 66 -70h42v-76h-56q-58 0 -96 38t-38 107v174q0 47 -19 70t-74 23v65q55 0 74 23t19 70v173q0 70 38 108t96 38h56v-76h-42q-66 0 -66 -70v-184q0 -49 -17.5 -75t-58.5 -40z" />
    <glyph glyph-name="braceright.case" horiz-adv-x="320" 
d="M207 363q-41 14 -58.5 40t-17.5 75v184q0 70 -66 70h-42v76h56q58 0 96 -38t38 -108v-173q0 -47 19 -70t74 -23v-65q-55 0 -74 -23t-19 -70v-174q0 -69 -38 -107t-96 -38h-56v76h42q66 0 66 70v184q0 49 17.5 75t58.5 39z" />
    <glyph glyph-name="guillemotleft.case" horiz-adv-x="486" 
d="M35 403l204 173v-106l-131 -111l131 -111v-106l-204 173v88zM239 403l204 173v-106l-131 -111l131 -111v-106l-204 173v88z" />
    <glyph glyph-name="guillemotright.case" horiz-adv-x="486" 
d="M43 576l204 -173v-88l-204 -173v106l131 111l-131 111v106zM247 576l204 -173v-88l-204 -173v106l131 111l-131 111v106z" />
    <glyph glyph-name="guilsinglleft.case" horiz-adv-x="282" 
d="M35 403l204 173v-106l-131 -111l131 -111v-106l-204 173v88z" />
    <glyph glyph-name="guilsinglright.case" horiz-adv-x="282" 
d="M43 576l204 -173v-88l-204 -173v106l131 111l-131 111v106z" />
    <glyph glyph-name="zero.num" horiz-adv-x="447" 
d="M326 450q0 100 -28.5 151t-76.5 51t-76 -51.5t-28 -150.5q0 -100 28 -151.5t76 -51.5t76.5 51.5t28.5 151.5zM409 450q0 -161 -74 -233q-46 -46 -114 -46q-66 0 -114 46q-73 70 -73 233q0 158 73 231q48 48 114 48q69 0 115 -48q73 -73 73 -231z" />
    <glyph glyph-name="one.num" horiz-adv-x="287" 
d="M26 574v60h17q45 0 76 22t41 64h62v-540h-82v394h-114z" />
    <glyph glyph-name="two.num" horiz-adv-x="432" 
d="M394 256v-76h-351v26q0 46 12 82q18 52 90 104l76 57q46 35 63.5 58t17.5 56q0 38 -25 63t-61 25q-70 0 -106 -88l-67 33q22 60 67.5 96.5t109.5 36.5q71 0 118 -48t47 -117q0 -55 -23 -90t-82 -78l-92 -65q-53 -37 -55 -75h261z" />
    <glyph glyph-name="three.num" horiz-adv-x="407" 
d="M200 729q67 0 110 -42.5t43 -108.5q0 -78 -66 -112q38 -17 61.5 -53.5t23.5 -82.5q0 -72 -47.5 -115.5t-120.5 -43.5q-117 0 -177 105l64 45q44 -73 110 -73q39 0 63.5 23t24.5 62q0 62 -50 85q-19 9 -70 9h-32v72h18q57 0 78 10q40 17 40 67q0 33 -21 54.5t-54 21.5
q-57 0 -96 -65l-61 43q62 99 159 99z" />
    <glyph glyph-name="four.num" horiz-adv-x="434" 
d="M265 603l-156 -217h156v217zM408 386v-73h-62v-133h-81v133h-239v77l239 330h81v-334h62z" />
    <glyph glyph-name="five.num" horiz-adv-x="418" 
d="M225 537q67 0 115.5 -51t48.5 -130q0 -80 -52 -132.5t-132 -52.5q-63 0 -108.5 34t-66.5 92l68 35q36 -85 107 -85q46 0 74 30.5t28 77.5q0 49 -29 78t-74 29q-52 0 -95 -51l-65 13l27 296h281v-77h-217l-15 -154q43 48 105 48z" />
    <glyph glyph-name="six.num" horiz-adv-x="435" 
d="M131 351q0 -41 28 -73t69 -32q42 0 69 29.5t27 73.5q0 45 -27 73.5t-69 28.5q-41 0 -69 -27.5t-28 -72.5zM237 729q89 0 153 -79l-53 -54q-51 56 -102 56q-46 0 -76 -44q-37 -51 -38 -151q42 69 121 69q69 0 116 -49t47 -126q0 -76 -50 -128t-126 -52q-86 0 -136 60
q-54 62 -54 202q0 158 66 235q53 61 132 61z" />
    <glyph glyph-name="seven.num" horiz-adv-x="412" 
d="M204 181h-92q17 254 199 462h-285v77h366v-69q-171 -205 -188 -470z" />
    <glyph glyph-name="eight.num" horiz-adv-x="427" 
d="M212 171q-78 0 -128 44.5t-50 117.5q0 92 84 133q-64 40 -64 111q0 65 46 108.5t112 43.5t111.5 -43.5t45.5 -108.5q0 -71 -63 -111q36 -18 59.5 -52.5t23.5 -80.5q0 -73 -50 -117.5t-127 -44.5zM115 336q0 -38 27 -64t70 -26t69.5 27t26.5 63q0 38 -26 64.5t-70 26.5
q-45 0 -71 -26.5t-26 -64.5zM131 577q0 -34 21.5 -56t59.5 -22q36 0 58 23t22 55t-22.5 54.5t-57.5 22.5q-36 0 -58.5 -22t-22.5 -55z" />
    <glyph glyph-name="nine.num" horiz-adv-x="435" 
d="M300 546q0 43 -27.5 74.5t-69.5 31.5t-69 -29t-27 -73q0 -46 27 -74t69 -28t69.5 27t27.5 71zM193 171q-89 0 -154 74l51 56q49 -55 103 -55q47 0 80 44q36 50 39 153q-43 -71 -120 -71q-71 0 -118 49.5t-47 127.5q0 75 49.5 127.5t124.5 52.5q85 0 137 -62
q55 -67 55 -202q0 -154 -65 -233q-52 -61 -135 -61z" />
    <glyph glyph-name="zero.den" horiz-adv-x="447" 
d="M326 270q0 100 -28.5 151t-76.5 51t-76 -51.5t-28 -150.5q0 -100 28 -151.5t76 -51.5t76.5 51.5t28.5 151.5zM409 270q0 -161 -74 -233q-46 -46 -114 -46q-66 0 -114 46q-73 70 -73 233q0 158 73 231q48 48 114 48q69 0 115 -48q73 -73 73 -231z" />
    <glyph glyph-name="one.den" horiz-adv-x="287" 
d="M26 394v60h17q45 0 76 22t41 64h62v-540h-82v394h-114z" />
    <glyph glyph-name="two.den" horiz-adv-x="432" 
d="M394 76v-76h-351v26q0 46 12 82q18 52 90 104l76 57q46 35 63.5 58t17.5 56q0 38 -25 63t-61 25q-70 0 -106 -88l-67 33q22 60 67.5 96.5t109.5 36.5q71 0 118 -48t47 -117q0 -55 -23 -90t-82 -78l-92 -65q-53 -37 -55 -75h261z" />
    <glyph glyph-name="three.den" horiz-adv-x="407" 
d="M200 549q67 0 110 -42.5t43 -108.5q0 -78 -66 -112q38 -17 61.5 -53.5t23.5 -82.5q0 -72 -47.5 -115.5t-120.5 -43.5q-117 0 -177 105l64 45q44 -73 110 -73q39 0 63.5 23t24.5 62q0 62 -50 85q-19 9 -70 9h-32v72h18q57 0 78 10q40 17 40 67q0 33 -21 54.5t-54 21.5
q-57 0 -96 -65l-61 43q62 99 159 99z" />
    <glyph glyph-name="four.den" horiz-adv-x="434" 
d="M265 423l-156 -217h156v217zM408 206v-73h-62v-133h-81v133h-239v77l239 330h81v-334h62z" />
    <glyph glyph-name="five.den" horiz-adv-x="418" 
d="M225 357q67 0 115.5 -51t48.5 -130q0 -80 -52 -132.5t-132 -52.5q-63 0 -108.5 34t-66.5 92l68 35q36 -85 107 -85q46 0 74 30.5t28 77.5q0 49 -29 78t-74 29q-52 0 -95 -51l-65 13l27 296h281v-77h-217l-15 -154q43 48 105 48z" />
    <glyph glyph-name="six.den" horiz-adv-x="435" 
d="M131 171q0 -41 28 -73t69 -32q42 0 69 29.5t27 73.5q0 45 -27 73.5t-69 28.5q-41 0 -69 -27.5t-28 -72.5zM237 549q89 0 153 -79l-53 -54q-51 56 -102 56q-46 0 -76 -44q-37 -51 -38 -151q42 69 121 69q69 0 116 -49t47 -126q0 -76 -50 -128t-126 -52q-86 0 -136 60
q-54 62 -54 202q0 158 66 235q53 61 132 61z" />
    <glyph glyph-name="seven.den" horiz-adv-x="412" 
d="M204 0h-92q17 254 199 462h-285v77h366v-69q-171 -205 -188 -470z" />
    <glyph glyph-name="eight.den" horiz-adv-x="427" 
d="M212 -9q-78 0 -128 44.5t-50 117.5q0 92 84 133q-64 40 -64 111q0 65 46 108.5t112 43.5t111.5 -43.5t45.5 -108.5q0 -71 -63 -111q36 -18 59.5 -52.5t23.5 -80.5q0 -73 -50 -117.5t-127 -44.5zM115 156q0 -38 27 -64t70 -26t69.5 27t26.5 63q0 38 -26 64.5t-70 26.5
q-45 0 -71 -26.5t-26 -64.5zM131 397q0 -34 21.5 -56t59.5 -22q36 0 58 23t22 55t-22.5 54.5t-57.5 22.5q-36 0 -58.5 -22t-22.5 -55z" />
    <glyph glyph-name="nine.den" horiz-adv-x="435" 
d="M300 366q0 43 -27.5 74.5t-69.5 31.5t-69 -29t-27 -73q0 -46 27 -74t69 -28t69.5 27t27.5 71zM193 -9q-89 0 -154 74l51 56q49 -55 103 -55q47 0 80 44q36 50 39 153q-43 -71 -120 -71q-71 0 -118 49.5t-47 127.5q0 75 49.5 127.5t124.5 52.5q85 0 137 -62
q55 -67 55 -202q0 -154 -65 -233q-52 -61 -135 -61z" />
    <glyph glyph-name="space.em" horiz-adv-x="1000" 
 />
    <glyph glyph-name="space.en" horiz-adv-x="500" 
 />
    <glyph glyph-name="space.fourperem" horiz-adv-x="250" 
 />
    <glyph glyph-name="space.hair" horiz-adv-x="75" 
 />
    <glyph glyph-name="space.thin" horiz-adv-x="100" 
 />
    <glyph glyph-name="space.figure" 
 />
    <glyph glyph-name="invbreve" horiz-adv-x="500" 
d="M386 584h-57q-6 29 -26.5 46.5t-52.5 17.5q-64 0 -80 -64h-56q2 60 39 98t97 38t98 -38t38 -98z" />
    <glyph glyph-name="dotbelow" horiz-adv-x="500" 
d="M193 -121q0 25 15.5 41t41.5 16t41.5 -16t15.5 -41t-15.5 -41t-41.5 -16t-41.5 16t-15.5 41z" />
    <glyph glyph-name="fi.trk" 
d="M213 580v-39h103v-84h-103v-457h-94v457h-103v84h103v41q0 66 37.5 108t108.5 42q37 0 63 -8l-10 -85q-23 5 -45 5q-60 0 -60 -64zM495 541v-541h-94v541h94zM391 673q0 25 15.5 41t41.5 16t41.5 -16t15.5 -41t-15.5 -41t-41.5 -16t-41.5 16t-15.5 41z" />
    <glyph glyph-name="dblgrave.cap" horiz-adv-x="500" 
d="M206 878l55 -121h-64l-100 121h109zM347 878l56 -121h-64l-100 121h108z" />
    <glyph glyph-name="invbreve.cap" horiz-adv-x="500" 
d="M386 756h-55q-20 50 -81 50t-81 -50h-55q4 54 40.5 88t95.5 34t96.5 -34t39.5 -88z" />
    <glyph glyph-name="Kgreenlandic" horiz-adv-x="675" 
d="M664 0h-130l-242 340l-120 -131v-209h-99v720h99v-375l336 375h132l-278 -304z" />
    <glyph glyph-name="Napostrophe" horiz-adv-x="836" 
d="M659 0l-374 552v-552h-93v720h100l378 -557v557h93v-720h-104zM35 554l2 166h97l-49 -166h-50z" />
    <glyph glyph-name="quotedblreversed" horiz-adv-x="396" 
d="M320 720l26 -234h-55l-80 234h109zM159 720l26 -234h-55l-80 234h109z" />
    <glyph glyph-name="phonomark" horiz-adv-x="826" 
d="M440 486h-75v-105h73q30 0 46 14.5t16 38.5t-15.5 38t-44.5 14zM439 310h-74v-155h-75v402h152q64 0 100 -34t36 -89q0 -56 -36 -90t-103 -34zM413 -12q-161 0 -266.5 105.5t-105.5 266.5q0 160 105.5 266t266.5 106t266.5 -106t105.5 -266q0 -161 -105.5 -266.5
t-266.5 -105.5zM703 360q0 126 -82.5 211.5t-207.5 85.5q-126 0 -208 -85.5t-82 -211.5q0 -127 82 -212.5t208 -85.5q125 0 207.5 86t82.5 212z" />
    <glyph glyph-name="ffi.trk" horiz-adv-x="850" 
d="M499 580v-39h103v-84h-103v-457h-94v457h-192v-457h-94v457h-103v84h103v41q0 66 37.5 108t108.5 42q37 0 63 -8l-10 -85q-23 5 -45 5q-60 0 -60 -64v-39h192v41q0 66 37.5 108t108.5 42q37 0 63 -8l-10 -85q-23 5 -45 5q-60 0 -60 -64zM781 541v-541h-94v541h94z
M677 673q0 25 15.5 41t41.5 16t41.5 -16t15.5 -41t-15.5 -41t-41.5 -16t-41.5 16t-15.5 41z" />
    <glyph glyph-name="space.threeperem" horiz-adv-x="333" 
 />
    <glyph glyph-name="space.sixperem" horiz-adv-x="166" 
 />
    <glyph glyph-name="space.punctuation" horiz-adv-x="250" 
 />
    <glyph glyph-name="celsius" horiz-adv-x="1174" 
d="M818 637q-111 0 -185.5 -79t-74.5 -198q0 -118 75 -197.5t185 -79.5q164 0 232 164l92 -41q-37 -101 -118 -159.5t-206 -58.5q-156 0 -260.5 105.5t-104.5 266.5q0 160 105.5 266t259.5 106q217 0 312 -188l-87 -51q-79 144 -225 144zM33 559q0 74 50 123.5t123 49.5
t123 -49.5t50 -123.5q0 -71 -50.5 -121.5t-122.5 -50.5q-73 0 -123 49t-50 123zM112 559q0 -42 27 -69t67 -27q39 0 66 28t27 68q0 42 -26.5 69t-66.5 27t-67 -27t-27 -69z" />
    <glyph glyph-name="farenheit" horiz-adv-x="922" 
d="M485 0v720h399v-91h-300v-208h271v-91h-271v-330h-99zM33 559q0 74 50 123.5t123 49.5t123 -49.5t50 -123.5q0 -71 -50.5 -121.5t-122.5 -50.5q-73 0 -123 49t-50 123zM112 559q0 -42 27 -69t67 -27q39 0 66 28t27 68q0 42 -26.5 69t-66.5 27t-67 -27t-27 -69z" />
    <glyph glyph-name="permillion" horiz-adv-x="1758" 
d="M41 539q0 84 54.5 138.5t135.5 54.5t135.5 -55t54.5 -138q0 -79 -55 -135t-135 -56q-81 0 -135.5 54t-54.5 137zM120 539q0 -50 32 -83.5t79 -33.5q46 0 78 34.5t32 82.5q0 51 -31.5 84.5t-78.5 33.5t-79 -33.5t-32 -84.5zM577 720h85l-298 -720h-85zM523 179
q0 84 54.5 138.5t135.5 54.5t135.5 -55t54.5 -138q0 -79 -55 -135t-135 -56q-81 0 -135.5 54t-54.5 137zM602 179q0 -50 32 -83.5t79 -33.5q46 0 78 34.5t32 82.5q0 51 -31.5 84.5t-78.5 33.5t-79 -33.5t-32 -84.5zM930 179q0 84 54.5 138.5t135.5 54.5t135.5 -55t54.5 -138
q0 -79 -55 -135t-135 -56q-81 0 -135.5 54t-54.5 137zM1009 179q0 -50 32 -83.5t79 -33.5q46 0 78 34.5t32 82.5q0 51 -31.5 84.5t-78.5 33.5t-79 -33.5t-32 -84.5zM1337 179q0 84 54.5 138.5t135.5 54.5t135.5 -55t54.5 -138q0 -79 -55 -135t-135 -56q-81 0 -135.5 54
t-54.5 137zM1416 179q0 -50 32 -83.5t79 -33.5q46 0 78 34.5t32 82.5q0 51 -31.5 84.5t-78.5 33.5t-79 -33.5t-32 -84.5z" />
    <glyph glyph-name="plusinferior" horiz-adv-x="443" 
d="M254 134h136v-69h-136v-136h-70v136h-135v69h135v137h70v-137z" />
    <glyph glyph-name="minusinferior" horiz-adv-x="443" 
d="M49 134h341v-69h-341v69z" />
    <glyph glyph-name="equalinferior" horiz-adv-x="443" 
d="M49 208h341v-70h-341v70zM49 61h341v-70h-341v70z" />
    </font>
</defs>
</svg>
